<?xml version="1.0" standalone="no"?>
<!DOCTYPE svg PUBLIC "-//W3C//DTD SVG 1.1//EN" "http://www.w3.org/Graphics/SVG/1.1/DTD/svg11.dtd" >
<svg xmlns="http://www.w3.org/2000/svg">
<metadata>Generated by IcoMoon</metadata>
<defs>
<font id="Sprinta2017" horiz-adv-x="1024">
<font-face units-per-em="1024" ascent="960" descent="-64" />
<missing-glyph horiz-adv-x="1024" />
<glyph unicode="&#x20;" horiz-adv-x="512" d="" />
<glyph unicode="&#xe900;" glyph-name="group" d="M512-64c-282.102 0-512 229.898-512 512s229.898 512 512 512c282.102 0 512-229.898 512-512s-229.898-512-512-512zM512 939.922c-271.059 0-491.922-220.863-491.922-491.922s220.863-491.922 491.922-491.922 491.922 220.863 491.922 491.922-220.863 491.922-491.922 491.922zM853.333 74.541h-20.078c0 45.176-25.098 85.333-65.255 105.412l-135.529 68.267c-16.063 8.031-26.102 24.094-26.102 42.165v51.2l2.008 3.012c3.012 4.016 6.024 8.031 10.039 13.051 17.067 24.094 31.122 51.2 40.157 80.314l1.004 4.016 4.016 2.008c16.063 8.031 27.106 24.094 27.106 42.165v57.224c0 11.043-4.016 22.086-12.047 31.122l-2.008 3.012v79.31c3.012 32.125-7.027 62.243-27.106 86.337-27.106 30.118-71.278 46.18-132.518 46.18s-105.412-16.063-132.518-47.184c-20.078-24.094-30.118-54.212-27.106-85.333v-80.314l-2.008-3.012c-7.027-8.031-12.047-19.075-12.047-31.122v-57.224c0-14.055 6.024-27.106 17.067-36.141l3.012-2.008 1.004-3.012c9.035-36.141 26.102-69.271 48.188-99.388l2.008-3.012v-50.196c0-17.067-9.035-33.129-25.098-42.165l-126.494-69.271c-38.149-21.082-61.239-60.235-61.239-103.404v-22.086l-15.059 22.086h-5.020c0 50.196 27.106 97.38 72.282 121.475l126.494 69.271c9.035 5.020 14.055 14.055 14.055 24.094v44.173c-22.086 30.118-38.149 64.251-48.188 100.392-14.055 13.051-22.086 30.118-22.086 50.196v57.224c0 15.059 5.020 29.114 14.055 41.161v72.282c-3.012 36.141 8.031 71.278 32.125 99.388 31.122 36.141 81.318 54.212 148.58 54.212s117.459-18.071 148.58-53.208c24.094-28.11 35.137-63.247 32.125-100.392v-71.278c9.035-12.047 14.055-26.102 14.055-41.161v-57.224c0-24.094-13.051-47.184-35.137-58.227-10.039-29.114-24.094-56.22-42.165-81.318-3.012-4.016-6.024-8.031-8.031-11.043v-44.173c0-10.039 6.024-20.078 15.059-25.098l135.529-68.267c45.176-24.094 74.29-71.278 74.29-124.486zM67.263 209.067c0 35.137 19.075 67.263 49.192 84.329l83.325 46.18c5.020 3.012 8.031 8.031 8.031 13.051v28.11c-14.055 20.078-25.098 42.165-31.122 66.259-10.039 9.035-15.059 22.086-15.059 35.137v38.149c0 10.039 3.012 20.078 9.035 28.11v47.184c-2.008 24.094 6.024 49.192 22.086 68.267 21.082 25.098 55.216 37.145 100.392 37.145 21.082 1.004 42.165-3.012 61.239-10.039l-7.027-19.075c-17.067 6.024-36.141 9.035-54.212 9.035-39.153 0-68.267-10.039-85.333-30.118-13.051-15.059-19.075-35.137-17.067-55.216v-55.216l-2.008-3.012c-4.016-5.020-7.027-12.047-7.027-18.071v-38.149c0-8.031 4.016-16.063 10.039-22.086l3.012-2.008 1.004-3.012c6.024-24.094 16.063-46.18 31.122-65.255l2.008-3.012v-35.137c0-13.051-7.027-24.094-18.071-31.122l-83.325-46.18c-24.094-13.051-39.153-39.153-38.149-75.294l-22.086 11.043zM400.565 302.431l-35.137 18.071c-12.047 6.024-19.075 18.071-19.075 31.122v36.141l2.008 3.012c2.008 3.012 4.016 5.020 6.024 8.031s5.020 7.027 7.027 11.043l17.067-10.039c-2.008-4.016-5.020-8.031-8.031-12.047-2.008-2.008-3.012-5.020-5.020-7.027v-29.114c0-6.024 3.012-11.043 8.031-14.055l35.137-18.071-8.031-17.067zM183.718 310.463l-18.071-3.012c0 13.051-7.027 25.098-19.075 31.122l-46.18 24.094c-8.031 4.016-12.047 12.047-12.047 21.082v20.078l2.008 3.012c1.004 1.004 2.008 3.012 3.012 4.016 5.020 8.031 10.039 17.067 13.051 26.102l1.004 4.016 4.016 2.008c3.012 2.008 6.024 5.020 6.024 9.035v20.078c0 2.008-1.004 5.020-2.008 7.027l-2.008 3.012v30.118c1.004 10.039-2.008 19.075-8.031 26.102-8.031 9.035-21.082 14.055-40.157 14.055-13.051 1.004-25.098-3.012-35.137-10.039l-12.047 16.063c14.055 10.039 31.122 15.059 48.188 14.055 0 0 0 0 0 0 24.094 0 43.169-7.027 54.212-21.082 9.035-11.043 13.051-25.098 12.047-40.157v-23.090c3.012-5.020 5.020-11.043 5.020-16.063v-20.078c0-10.039-5.020-19.075-13.051-25.098-4.016-10.039-8.031-19.075-14.055-28.11 0 0-1.004-1.004-2.008-1.004v-14.055c0-1.004 1.004-2.008 2.008-3.012l46.18-24.094c18.071-10.039 27.106-26.102 27.106-46.18zM936.659 165.898h-20.078v32.125c0 30.118 0 47.184-19.075 57.224l-83.325 46.18c-11.043 6.024-18.071 18.071-18.071 31.122v35.137l2.008 3.012c14.055 20.078 25.098 42.165 31.122 65.255l1.004 3.012 3.012 2.008c7.027 5.020 10.039 13.051 10.039 22.086v38.149c0 7.027-2.008 13.051-7.027 18.071l-2.008 3.012v54.212c2.008 21.082-4.016 40.157-17.067 56.22-17.067 20.078-45.176 30.118-84.329 30.118-19.075 0-28.11-1.004-46.18-7.027l-7.027 19.075c20.078 7.027 32.125 9.035 53.208 9.035v0c45.176 0 78.306-12.047 99.388-37.145 16.063-20.078 24.094-44.173 22.086-69.271v-46.18c6.024-8.031 9.035-18.071 9.035-28.11v-38.149c0-13.051-5.020-26.102-15.059-35.137-7.027-24.094-17.067-46.18-31.122-66.259v-28.11c0-6.024 3.012-11.043 8.031-13.051l83.325-46.18c29.114-16.063 29.114-46.18 29.114-75.294l-1.004-35.137zM623.435 282.353l-9.035 18.071 35.137 18.071c5.020 3.012 8.031 8.031 8.031 13.051v29.114c-2.008 2.008-3.012 4.016-5.020 7.027-3.012 4.016-5.020 8.031-8.031 12.047l11.043 21.082c2.008-4.016 11.043-18.071 13.051-21.082s4.016-6.024 6.024-8.031l2.008-3.012v-36.141c0-13.051-7.027-25.098-19.075-31.122l-34.133-19.075zM838.275 297.412c0 21.082 11.043 40.157 29.114 49.192l46.18 24.094c1.004 1.004 2.008 2.008 2.008 3.012v14.055c-1.004 0-2.008 1.004-2.008 2.008-6.024 9.035-11.043 18.071-14.055 28.11-8.031 6.024-13.051 15.059-13.051 25.098v20.078c0 6.024 2.008 11.043 5.020 16.063v23.090c-1.004 14.055 3.012 28.11 12.047 39.153 12.047 14.055 30.118 21.082 55.216 21.082 16.063 1.004 33.129-4.016 47.184-14.055l-7.027-20.078c-11.043 10.039-28.11 15.059-40.157 14.055-19.075 0-32.125-5.020-40.157-14.055-6.024-7.027-8.031-16.063-8.031-25.098v-31.122l-2.008-3.012c-2.008-2.008-2.008-4.016-2.008-7.027v-20.078c0-4.016 2.008-7.027 6.024-9.035l4.016-2.008 1.004-4.016c3.012-9.035 7.027-18.071 13.051-27.106 1.004-2.008 2.008-3.012 3.012-4.016l2.008-3.012v-20.078c0-9.035-5.020-17.067-12.047-21.082l-46.18-24.094c-12.047-6.024-19.075-18.071-18.071-31.122l-21.082 1.004z" />
<glyph unicode="&#xe901;" glyph-name="thumbs" d="M813.176 538.353c-114.447 0-210.824 96.376-210.824 210.824s96.376 210.824 210.824 210.824 210.824-96.376 210.824-210.824-96.376-210.824-210.824-210.824zM813.176 899.765c-84.329 0-150.588-66.259-150.588-150.588s66.259-150.588 150.588-150.588 150.588 66.259 150.588 150.588-66.259 150.588-150.588 150.588zM210.824 538.353c-114.447 0-210.824 96.376-210.824 210.824s96.376 210.824 210.824 210.824 210.824-96.376 210.824-210.824-96.376-210.824-210.824-210.824zM210.824 899.765c-84.329 0-150.588-66.259-150.588-150.588s66.259-150.588 150.588-150.588 150.588 66.259 150.588 150.588-66.259 150.588-150.588 150.588zM813.176-64c-114.447 0-210.824 96.376-210.824 210.824s96.376 210.824 210.824 210.824 210.824-96.376 210.824-210.824-96.376-210.824-210.824-210.824zM813.176 297.412c-84.329 0-150.588-66.259-150.588-150.588s66.259-150.588 150.588-150.588 150.588 66.259 150.588 150.588-66.259 150.588-150.588 150.588zM210.824-64c-114.447 0-210.824 96.376-210.824 210.824s96.376 210.824 210.824 210.824 210.824-96.376 210.824-210.824-96.376-210.824-210.824-210.824zM210.824 297.412c-84.329 0-150.588-66.259-150.588-150.588s66.259-150.588 150.588-150.588 150.588 66.259 150.588 150.588-66.259 150.588-150.588 150.588z" />
<glyph unicode="&#xe902;" glyph-name="add-friend" horiz-adv-x="1134" d="M512-64c-41.161 0-83.325 5.020-125.49 16.063-274.071 69.271-440.722 347.357-371.451 621.427s348.361 440.722 621.427 371.451c183.718-46.18 325.271-188.737 371.451-372.455l-19.075-5.020c-43.169 176.69-180.706 313.224-356.392 357.396-263.027 66.259-531.075-93.365-597.333-356.392s93.365-531.075 356.392-597.333c263.027-66.259 531.075 93.365 597.333 356.392l19.075-5.020c-58.227-231.906-267.043-386.51-495.937-386.51zM853.333 84.58h-20.078c0 45.176-25.098 85.333-65.255 105.412l-135.529 68.267c-16.063 8.031-26.102 24.094-26.102 42.165v51.2l2.008 3.012c3.012 4.016 6.024 8.031 10.039 13.051 17.067 24.094 31.122 51.2 40.157 80.314l1.004 4.016 4.016 2.008c16.063 8.031 27.106 24.094 27.106 42.165v57.224c0 11.043-4.016 22.086-12.047 31.122l-2.008 3.012v79.31c3.012 32.125-7.027 62.243-27.106 86.337-27.106 30.118-71.278 46.18-132.518 46.18s-105.412-16.063-132.518-47.184c-20.078-24.094-30.118-54.212-27.106-85.333v-80.314l-2.008-3.012c-7.027-8.031-12.047-19.075-12.047-31.122v-57.224c0-14.055 6.024-27.106 17.067-36.141l3.012-2.008 1.004-3.012c9.035-36.141 26.102-69.271 48.188-99.388l2.008-3.012v-50.196c0-17.067-9.035-33.129-25.098-42.165l-126.494-69.271c-38.149-21.082-61.239-60.235-61.239-103.404h-20.078c0 50.196 27.106 97.38 72.282 121.475l126.494 69.271c9.035 5.020 14.055 14.055 14.055 24.094v44.173c-22.086 30.118-38.149 64.251-48.188 100.392-14.055 13.051-22.086 30.118-22.086 50.196v57.224c0 15.059 5.020 29.114 14.055 41.161v72.282c-3.012 36.141 8.031 71.278 32.125 99.388 31.122 36.141 81.318 54.212 148.58 54.212s117.459-18.071 148.58-53.208c24.094-28.11 35.137-63.247 32.125-100.392v-71.278c9.035-12.047 14.055-26.102 14.055-41.161v-57.224c0-24.094-13.051-47.184-35.137-58.227-10.039-29.114-24.094-56.22-42.165-81.318-3.012-4.016-6.024-8.031-8.031-11.043v-44.173c0-10.039 6.024-20.078 15.059-25.098l135.529-68.267c45.176-24.094 74.29-71.278 74.29-124.486zM983.843 598.588c-83.325 0-150.588-67.263-150.588-150.588s67.263-150.588 150.588-150.588 150.588 67.263 150.588 150.588c0 83.325-67.263 150.588-150.588 150.588zM1059.137 432.941h-60.235v-60.235h-30.118v60.235h-60.235v30.118h60.235v60.235h30.118v-60.235h60.235v-30.118z" />
<glyph unicode="&#xe903;" glyph-name="athlete" d="M512-64c-282.102 0-512 229.898-512 512s229.898 512 512 512c282.102 0 512-229.898 512-512s-229.898-512-512-512zM512 939.922c-271.059 0-491.922-220.863-491.922-491.922s220.863-491.922 491.922-491.922 491.922 220.863 491.922 491.922-220.863 491.922-491.922 491.922zM853.333 84.58h-20.078c0 45.176-25.098 85.333-65.255 105.412l-135.529 68.267c-16.063 8.031-26.102 24.094-26.102 42.165v51.2l2.008 3.012c3.012 4.016 6.024 8.031 10.039 13.051 17.067 24.094 31.122 51.2 40.157 80.314l1.004 4.016 4.016 2.008c16.063 8.031 27.106 24.094 27.106 42.165v57.224c0 11.043-4.016 22.086-12.047 31.122l-2.008 3.012v79.31c3.012 32.125-7.027 62.243-27.106 86.337-27.106 30.118-71.278 46.18-132.518 46.18s-105.412-16.063-132.518-47.184c-20.078-24.094-30.118-54.212-27.106-85.333v-80.314l-2.008-3.012c-7.027-8.031-12.047-19.075-12.047-31.122v-57.224c0-14.055 6.024-27.106 17.067-36.141l3.012-2.008 1.004-3.012c9.035-36.141 26.102-69.271 48.188-99.388l2.008-3.012v-50.196c0-17.067-9.035-33.129-25.098-42.165l-126.494-69.271c-38.149-21.082-61.239-60.235-61.239-103.404h-20.078c0 50.196 27.106 97.38 72.282 121.475l126.494 69.271c9.035 5.020 14.055 14.055 14.055 24.094v44.173c-22.086 30.118-38.149 64.251-48.188 100.392-14.055 13.051-22.086 30.118-22.086 50.196v57.224c0 15.059 5.020 29.114 14.055 41.161v72.282c-3.012 36.141 8.031 71.278 32.125 99.388 31.122 36.141 81.318 54.212 148.58 54.212s117.459-18.071 148.58-53.208c24.094-28.11 35.137-63.247 32.125-100.392v-71.278c9.035-12.047 14.055-26.102 14.055-41.161v-57.224c0-24.094-13.051-47.184-35.137-58.227-10.039-29.114-24.094-56.22-42.165-81.318-3.012-4.016-6.024-8.031-8.031-11.043v-44.173c0-10.039 6.024-20.078 15.059-25.098l135.529-68.267c45.176-24.094 74.29-71.278 74.29-124.486z" />
<glyph unicode="&#xe904;" glyph-name="double" d="M512-64c-282.102 0-512 229.898-512 512s229.898 512 512 512c282.102 0 512-229.898 512-512s-229.898-512-512-512zM512 939.922c-271.059 0-491.922-220.863-491.922-491.922s220.863-491.922 491.922-491.922 491.922 220.863 491.922 491.922-220.863 491.922-491.922 491.922zM853.333 84.58h-20.078c0 45.176-25.098 85.333-65.255 105.412l-135.529 68.267c-16.063 8.031-26.102 24.094-26.102 42.165v51.2l2.008 3.012c3.012 4.016 6.024 8.031 10.039 13.051 17.067 24.094 31.122 51.2 40.157 80.314l1.004 4.016 4.016 2.008c16.063 8.031 27.106 24.094 27.106 42.165v57.224c0 11.043-4.016 22.086-12.047 31.122l-2.008 3.012v79.31c3.012 32.125-7.027 62.243-27.106 86.337-27.106 30.118-71.278 46.18-132.518 46.18s-105.412-16.063-132.518-47.184c-20.078-24.094-30.118-54.212-27.106-85.333v-80.314l-2.008-3.012c-7.027-8.031-12.047-19.075-12.047-31.122v-57.224c0-14.055 6.024-27.106 17.067-36.141l3.012-2.008 1.004-3.012c9.035-36.141 26.102-69.271 48.188-99.388l2.008-3.012v-50.196c0-17.067-9.035-33.129-25.098-42.165l-126.494-69.271c-38.149-21.082-61.239-60.235-61.239-103.404h-20.078c0 50.196 27.106 97.38 72.282 121.475l126.494 69.271c9.035 5.020 14.055 14.055 14.055 24.094v44.173c-22.086 30.118-38.149 64.251-48.188 100.392-14.055 13.051-22.086 30.118-22.086 50.196v57.224c0 15.059 5.020 29.114 14.055 41.161v72.282c-3.012 36.141 8.031 71.278 32.125 99.388 31.122 36.141 81.318 54.212 148.58 54.212s117.459-18.071 148.58-53.208c24.094-28.11 35.137-63.247 32.125-100.392v-71.278c9.035-12.047 14.055-26.102 14.055-41.161v-57.224c0-24.094-13.051-47.184-35.137-58.227-10.039-29.114-24.094-56.22-42.165-81.318-3.012-4.016-6.024-8.031-8.031-11.043v-44.173c0-10.039 6.024-20.078 15.059-25.098l135.529-68.267c45.176-24.094 74.29-71.278 74.29-124.486zM688.69 245.208l-14.055 14.055c6.024 6.024 14.055 12.047 22.086 16.063l81.318 41.161c4.016 2.008 7.027 6.024 7.027 11.043v25.098c-1.004 2.008-3.012 4.016-4.016 6.024-10.039 15.059-19.075 31.122-25.098 48.188-13.051 8.031-22.086 22.086-21.082 38.149v34.133c0 9.035 3.012 18.071 8.031 26.102v42.165c-2.008 22.086 5.020 44.173 20.078 62.243 19.075 22.086 50.196 34.133 91.357 34.133s72.282-11.043 91.357-34.133c15.059-18.071 22.086-40.157 20.078-63.247v-41.161c5.020-7.027 8.031-17.067 8.031-26.102v-34.133c0-12.047-5.020-24.094-14.055-32.125-6.024-21.082-15.059-41.161-28.11-59.231v-26.102c0-5.020 2.008-9.035 6.024-11.043l55.216-30.118-10.039-18.071-55.216 30.118c-10.039 6.024-17.067 17.067-17.067 29.114v31.122l2.008 3.012c13.051 18.071 22.086 37.145 28.11 58.227l1.004 3.012 3.012 2.008c6.024 5.020 9.035 11.043 9.035 19.075v34.133c0 6.024-2.008 11.043-6.024 16.063l-2.008 3.012v49.192c1.004 18.071-4.016 36.141-15.059 49.192-15.059 18.071-41.161 26.102-76.298 26.102s-61.239-9.035-76.298-27.106c-11.043-13.051-17.067-31.122-15.059-48.188v-50.196l-2.008-3.012c-4.016-4.016-6.024-10.039-6.024-16.063v-34.133c0-9.035 5.020-18.071 14.055-22.086l4.016-2.008 1.004-4.016c6.024-17.067 14.055-32.125 24.094-47.184 2.008-3.012 4.016-5.020 6.024-8.031l2.008-3.012v-29.114c0-12.047-7.027-23.090-18.071-29.114l-82.322-41.161c-7.027-3.012-12.047-7.027-17.067-12.047z" />
<glyph unicode="&#xe905;" glyph-name="sprinta-chalenges" horiz-adv-x="1010" d="M924.16 669.047l-30.515-12.715 24.917-59.733h-108.749v-33.075h122.573l41.267-98.987-41.318-99.106h-252.143c-43.904 40.934-103.011 66.063-167.987 66.063s-124.084-25.129-168.134-66.198l0.147 0.135h-278.272v-33.024h248.371c-31.234-41.033-50.039-93-50.039-149.36 0-136.927 111.001-247.927 247.927-247.927s247.927 111.001 247.927 247.927c0 56.36-18.806 108.327-50.484 149.969l0.445-0.609h208.452l-24.9-59.733 30.515-12.715 85.333 204.561zM727.091 183.706c0-0.045 0-0.1 0-0.154 0-118.669-96.2-214.869-214.869-214.869s-214.869 96.2-214.869 214.869c0 118.669 96.2 214.869 214.869 214.869v0c118.569-0.107 214.668-96.158 214.852-214.698v-0.017zM132.267 438.221l291.243 157.662 36.625-36.608-67.925-8.533c-25.638-3.272-45.257-24.953-45.257-51.217 0-28.503 23.106-51.61 51.61-51.61 0.017 0 0.033 0 0.050 0h-0.003c0.033 0 0.073 0 0.113 0 10.784 0 21.422 0.62 31.883 1.826l-1.275-0.12 145.783 16.196 21.163 84.599-69.751 97.57 89.515 12.8 32.546-113.766h95.113c27.367 0 49.553 22.186 49.553 49.553s-22.186 49.553-49.553 49.553h-19.524l-14.694 73.387-64.853 77.67c-15.672 18.755-39.071 30.601-65.237 30.601-0.033 0-0.067 0-0.1 0h0.005c-4.19-0.033-8.275-0.355-12.272-0.946l0.479 0.058-69.478 34.714-141.653-28.314c-24.388-5.002-42.471-26.288-42.471-51.797 0-29.172 23.649-52.821 52.821-52.821 0.009 0 0.018 0 0.028 0h9.078l-4.676-2.543-295.612-186.505c-15.797-10.032-26.129-27.436-26.129-47.253 0-0.050 0-0.099 0-0.149v0.008-4.745c0.002-30.971 25.11-56.077 56.081-56.077 9.815 0 19.042 2.522 27.066 6.952l-0.289-0.146zM560.469 543.676l-11.947-47.531-122.88-13.653c-8.084-0.956-17.448-1.502-26.939-1.502-0.033 0-0.067 0-0.1 0h0.005c-0.017 0-0.037 0-0.057 0-10.255 0-18.569 8.313-18.569 18.569 0 9.463 7.079 17.273 16.23 18.423l0.091 0.009 134.997 16.862-77.483 77.414 41.557 22.477zM366.78 761.805c-0.133-0.003-0.29-0.005-0.447-0.005-10.924 0-19.78 8.856-19.78 19.78 0 9.707 6.993 17.781 16.215 19.46l0.121 0.018 130.509 26.078 32.768-16.367-66.714-36.369-79.189-12.288c-0.885-0.152-1.904-0.239-2.943-0.239-0.033 0-0.067 0-0.1 0h-10.44zM82.517 487.509v4.745c0 0.016 0 0.035 0 0.054 0 8.134 4.237 15.279 10.625 19.347l0.093 0.055 294.69 186.027 166.485 90.743c7.201 3.977 15.784 6.321 24.914 6.332h0.003c0.002 0 0.005 0 0.008 0 16.029 0 30.36-7.269 39.877-18.69l0.068-0.084 59.409-71.236 18.381-91.75h46.592c0.158 0.005 0.344 0.009 0.531 0.009 9.124 0 16.521-7.396 16.521-16.521s-7.396-16.521-16.521-16.521c-0.187 0-0.373 0.003-0.558 0.009l0.027-0.001h-70.195l-33.587 117.487-132.881-18.961-390.485-211.371c-3.184-1.77-6.983-2.812-11.025-2.812-12.715 0-23.023 10.308-23.023 23.023 0 0.040 0 0.081 0 0.121v-0.006zM727.125 761.805c54.705 0.039 99.038 44.395 99.038 99.106 0 54.735-44.371 99.106-99.106 99.106s-99.106-44.371-99.106-99.106c0 0 0 0 0 0v0c0.068-54.714 44.409-99.048 99.118-99.106h0.005zM727.125 926.976c36.481-0.019 66.048-29.598 66.048-66.082 0-36.496-29.586-66.082-66.082-66.082s-66.082 29.586-66.082 66.082c0 0.006 0 0.012 0 0.018v-0.001c0.019 36.493 29.578 66.075 66.059 66.133h0.006zM-0.171 365.38h33.041v-33.024h-33.041v33.024zM-0.171 712.243h33.041v-33.024h-33.041v33.024zM65.946 712.243h165.308v-33.024h-165.274v33.024zM32.87 778.308h33.075v-33.024h-33.075v33.024zM98.987 778.308h181.76v-33.024h-181.76v33.024zM65.946 844.39h33.041v-33.041h-33.041v33.041zM132.045 844.39h165.291v-33.041h-165.291v33.041zM512.205 365.38c-100.329-0.087-181.646-81.357-181.811-181.659v-16.537h49.579v33.041h-15.599c1.82 15.931 5.895 30.472 11.929 43.945l-0.375-0.937 13.449-7.765 16.538 28.604-13.329 7.697c8.986 12.074 19.356 22.439 31.039 31.137l0.397 0.283 7.697-13.312 28.638 16.503-7.782 13.449c12.547 5.665 27.1 9.741 42.361 11.491l0.681 0.064v-15.548h33.058v15.582c15.941-1.806 30.495-5.883 43.974-11.928l-0.932 0.374-7.765-13.449 28.638-16.503 7.697 13.312c12.081-8.981 22.45-19.345 31.155-31.024l0.282-0.396-13.329-7.697 16.538-28.604 13.449 7.765c5.667-12.537 9.743-27.079 11.491-42.328l0.063-0.68h-15.565v-33.041h49.596v16.521c-0.184 100.285-81.466 181.524-181.749 181.641h-0.011zM525.619 91.494l-26.88 19.2 82.62 115.61 26.88-19.2zM495.667 51.558h33.058v-33.024h-33.058v32.99zM561.801 51.558h32.973v-33.024h-33.041v32.99zM429.551 51.558h33.075v-33.024h-33.075v32.99z" />
<glyph unicode="&#xe906;" glyph-name="sprinta-group" horiz-adv-x="1212" d="M385.911 685.841c2.344-69.739 25.328-133.68 62.995-186.412l-0.702 1.034c44.271-63.607 100.267-98.645 157.645-98.645s113.374 35.038 157.662 98.645c36.965 51.699 59.949 115.639 62.278 184.815l0.015 0.563c0.005 0.576 0.009 1.256 0.009 1.937 0 121.478-98.477 219.955-219.955 219.955s-219.955-98.477-219.955-219.955c0-0.681 0.003-1.362 0.009-2.041l-0.001 0.104zM605.867 869.069c100.487-0.484 181.761-82.056 181.761-182.611 0-0.217 0-0.433-0.001-0.65v0.034c-2.528-61.442-22.887-117.671-55.997-164.195l0.632 0.936c-36.386-52.275-82.466-82.261-126.396-82.261s-89.993 29.986-126.379 82.261c-32.48 45.588-52.839 101.818-55.344 162.655l-0.020 0.605c0 0.158-0.001 0.345-0.001 0.532 0 100.566 81.253 182.154 181.692 182.696h0.052zM769.997 444.809c-2.4 1.178-5.224 1.867-8.209 1.867-5.272 0-10.042-2.15-13.481-5.621l-0.001-0.001c-34.565-40.282-85.532-65.642-142.421-65.642s-107.856 25.36-142.211 65.392l-0.21 0.25c-3.443 3.473-8.216 5.624-13.492 5.624-2.988 0-5.814-0.69-8.329-1.919l0.112 0.050c-130.148-63.746-218.181-195.236-218.181-347.287 0-0.271 0-0.542 0.001-0.813v0.042-0.324c0-0.006 0-0.013 0-0.020 0-5.632 2.408-10.701 6.25-14.235l0.014-0.013c98.668-90.627 230.815-146.174 375.936-146.174s277.268 55.547 376.34 146.54l-0.404-0.366c3.866 3.539 6.281 8.608 6.281 14.241 0 0.009 0 0.019 0 0.028v-0.001 0.307c0.001 0.255 0.001 0.557 0.001 0.86 0 151.987-87.956 283.431-215.743 346.209l-2.267 1.006zM605.867-25.498c-0.067 0-0.147 0-0.226 0-132.133 0-252.708 49.484-344.205 130.93l0.521-0.455c2.877 129.296 76.040 240.862 182.678 298.27l1.847 0.909c40.463-41.503 96.923-67.245 159.394-67.245s118.931 25.742 159.349 67.198l0.045 0.047c108.473-58.331 181.623-169.901 184.484-298.807l0.007-0.389c-90.978-80.981-211.55-130.458-343.678-130.458-0.076 0-0.151 0-0.227 0h0.012zM1158.827 432.64c-33.75 52.383-80.232 93.898-135.174 120.795l-1.974 0.873c-2.403 1.179-5.229 1.869-8.217 1.869-5.267 0-10.033-2.144-13.474-5.606l-0.001-0.001c-30.295-33.171-73.201-54.382-121.075-56.005l-0.286-0.008c-25.021 0.145-48.56 6.352-69.266 17.224l0.829-0.396c-2.493 1.285-5.441 2.038-8.564 2.038-7.425 0-13.856-4.256-16.986-10.462l-0.050-0.109c-1.279-2.512-2.029-5.477-2.029-8.618 0-7.474 4.244-13.957 10.454-17.17l0.108-0.051c24.848-13.048 54.269-20.758 85.479-20.889h0.042c53.857 1.109 102.426 22.867 138.292 57.65l-0.052-0.050c91.745-50.065 153.618-144.681 156.544-253.998l0.008-0.398c-45.477-40.141-99.799-71.451-159.564-90.597l-3.183-0.881c-7.912-2.518-13.544-9.8-13.544-18.398 0-10.597 8.555-19.196 19.135-19.268h0.007c0.002 0 0.005 0 0.008 0 2.008 0 3.942 0.312 5.759 0.89l-0.134-0.037c71.268 22.69 132.625 58.842 183.92 105.804l-0.368-0.332c3.856 3.552 6.263 8.626 6.263 14.263 0 0.002 0 0.004 0 0.005v0 0.256c0 0.136 0 0.297 0 0.458 0 67.253-19.725 129.9-53.707 182.469l0.8-1.32zM332.288 518.417c21.899 0.169 42.491 5.609 60.617 15.111l-0.73-0.349c6.31 3.266 10.549 9.745 10.549 17.214 0 3.13-0.744 6.087-2.066 8.702l0.051-0.111c-3.159 6.375-9.622 10.681-17.090 10.681-3.102 0-6.031-0.743-8.618-2.061l0.108 0.050c-12.45-6.594-27.187-10.543-42.828-10.734l-0.060-0.001c-37.018 0-75.964 25.446-106.854 69.837-27.714 38.897-45.091 86.872-47.241 138.779l-0.017 0.519c0 0.112 0 0.245 0 0.378 0 85.278 68.899 154.464 154.068 154.929h0.044c0.071 0 0.155 0 0.24 0 41.557 0 79.236-16.607 106.761-43.547l-0.027 0.026c3.418-3.342 8.1-5.405 13.264-5.405 5.4 0 10.273 2.255 13.729 5.875l0.007 0.007c3.318 3.468 5.36 8.18 5.36 13.369 0 5.428-2.235 10.334-5.834 13.848l-0.004 0.004c-34.334 33.675-81.416 54.46-133.353 54.46-0.026 0-0.052 0-0.078 0h0.004c-106.338-0.561-192.325-86.895-192.325-193.312 0-0.199 0-0.398 0.001-0.596v0.031c2.022-60.721 22.024-116.4 54.815-162.317l-0.611 0.9c38.69-55.62 87.74-86.238 138.121-86.238zM155.426 185.617c-44.923 19.792-83.576 44.769-117.604 74.857l0.476-0.413c2.917 109.406 64.627 203.757 154.575 252.886l1.55 0.775c35.704-34.649 84.14-56.352 137.637-57.443l0.21-0.003c31.499 0.13 61.137 7.975 87.159 21.742l-1.024-0.494c6.28 3.275 10.494 9.739 10.494 17.186 0 3.168-0.762 6.158-2.114 8.796l0.051-0.109c-3.185 6.312-9.618 10.566-17.043 10.566-3.12 0-6.065-0.751-8.664-2.082l0.107 0.050c-19.99-10.645-43.695-16.945-68.86-17.067h-0.038c-48.009 1.63-90.777 22.783-120.848 55.726l-0.12 0.134c-3.439 3.465-8.205 5.61-13.471 5.61-2.989 0-5.817-0.691-8.333-1.922l0.112 0.050c-113.145-55.407-189.68-169.713-189.68-301.894 0-0.293 0-0.586 0.001-0.879v0.045-0.256c0-0.002 0-0.003 0-0.005 0-5.636 2.407-10.711 6.25-14.25l0.014-0.012c38.185-35.079 82.474-64.312 130.954-85.817l3.088-1.223c2.22-1.001 4.814-1.585 7.543-1.587h0.001c7.837 0.020 14.564 4.754 17.497 11.516l0.048 0.124c1.008 2.264 1.594 4.906 1.594 7.685 0 7.863-4.697 14.629-11.439 17.644l-0.123 0.049zM177.886 157.73c-0.955-2.199-1.51-4.76-1.51-7.451 0-10.566 8.566-19.132 19.132-19.132s19.132 8.566 19.132 19.132c0 2.691-0.556 5.252-1.558 7.575l0.048-0.124c-3.071 6.81-9.801 11.465-17.618 11.465-7.823 0-14.558-4.663-17.576-11.361l-0.049-0.122zM213.129 157.73c0.495-1.161-0.461 1.178 0 0v0zM772.454 877.943c27.498 26.913 65.177 43.52 106.734 43.52 0.084 0 0.168 0 0.253 0h-0.013c85.211-0.455 154.113-69.637 154.113-154.912 0-0.139 0-0.278-0.001-0.416v0.022c-2.159-52.427-19.536-100.404-47.796-140.095l0.539 0.797c-30.891-44.373-69.837-69.837-106.871-69.837-15.696 0.191-30.427 4.14-43.392 10.985l0.52-0.251c-2.476 1.261-5.399 1.999-8.495 1.999-7.469 0-13.934-4.3-17.055-10.559l-0.050-0.11c-1.271-2.505-2.015-5.461-2.015-8.591 0-7.469 4.238-13.948 10.441-17.163l0.108-0.051c17.397-9.15 37.987-14.589 59.832-14.762h0.055c50.381 0 99.447 30.618 138.138 86.221 32.173 45.019 52.169 100.697 54.174 160.932l0.013 0.485c0 0.158 0.001 0.345 0.001 0.532 0 106.399-85.958 192.721-192.218 193.311h-0.056c-0.074 0-0.162 0-0.25 0-51.873 0-98.904-20.729-133.262-54.356l0.034 0.033c-3.603-3.518-5.838-8.424-5.838-13.852 0-5.189 2.042-9.901 5.367-13.376l-0.007 0.007c3.464-3.632 8.34-5.891 13.744-5.891 5.159 0 9.838 2.059 13.259 5.4l-0.004-0.004z" />
<glyph unicode="&#xe907;" glyph-name="sprinta-event" horiz-adv-x="905" d="M376.883 462.37c56.32 0 111.377 34.458 154.931 97.024 36.451 50.917 59.12 113.905 61.425 182.057l0.015 0.556c0 119.48-96.857 216.337-216.337 216.337s-216.337-96.857-216.337-216.337v0c2.32-68.708 24.989-131.696 62.129-183.627l-0.689 1.014c43.486-62.566 98.509-97.024 154.863-97.024zM376.883 924.45c100.107-0.513 181.061-81.784 181.061-181.963 0-0.175 0-0.349-0.001-0.524v0.027c-2.519-61.018-22.739-116.858-55.617-163.063l0.628 0.93c-36.25-52.036-82.193-81.92-126.071-81.92s-89.822 29.85-126.071 81.92c-32.25 45.275-52.469 101.115-54.969 161.529l-0.020 0.604c0 0.148-0.001 0.322-0.001 0.497 0 100.179 80.954 181.449 181.012 181.962h0.049zM467.866 31.642c0.032-0.539 0.478-0.964 1.022-0.964 0.566 0 1.024 0.458 1.024 1.024s-0.458 1.024-1.024 1.024c-0.545 0-0.99-0.425-1.022-0.961v-0.003c-2.729 6.398-8.966 10.802-16.231 10.802-4.867 0-9.272-1.976-12.458-5.169v0c-3.254-3.211-5.269-7.67-5.269-12.599 0-9.774 7.924-17.698 17.698-17.698s17.698 7.924 17.698 17.698c0 2.433-0.491 4.752-1.379 6.862l0.043-0.116c0.017-0.222 0.085-0.375-0.102 0.034zM837.376 330.308c-41.288 41.693-98.544 67.509-161.83 67.509-1.865 0-3.725-0.022-5.579-0.067l0.275 0.005c-35.28 43.767-79.183 79.083-129.296 103.694l-2.237 0.993c-2.227 1.1-4.848 1.743-7.62 1.743-4.851 0-9.242-1.971-12.416-5.156l-0.001-0.001c-34.43-40.063-85.161-65.28-141.781-65.28s-107.351 25.217-141.574 65.033l-0.207 0.247c-3.172 3.191-7.565 5.165-12.418 5.165-2.778 0-5.404-0.647-7.737-1.798l0.103 0.046c-128.277-62.853-215.041-192.465-215.041-342.343 0-0.245 0-0.49 0.001-0.735v0.038-0.307c0-0.007 0-0.016 0-0.024 0-5.194 2.224-9.868 5.772-13.122l0.013-0.012c97.329-89.431 227.7-144.248 370.873-144.248 0.079 0 0.158 0 0.236 0h-0.012c7.253 0 14.592 0.137 21.811 0.427 9.516 0.377 17.088 8.183 17.088 17.758 0 9.815-7.956 17.771-17.771 17.771-0.24 0-0.479-0.005-0.717-0.014l0.034 0.001c-6.827-0.256-13.653-0.393-20.48-0.393-0.077 0-0.167 0-0.258 0-131.227 0-250.964 49.197-341.773 130.153l0.509-0.446c2.665 128.892 75.73 240.122 182.198 297.047l1.849 0.903c39.889-41.193 95.7-66.763 157.483-66.763s117.593 25.57 157.426 66.704l0.057 0.059c36.2-19.302 67.074-43.345 93.233-71.792l0.224-0.247c-45.266-9.747-84.337-31.83-114.72-62.53l-0.019-0.019c-41.453-41.982-67.057-99.699-67.057-163.396s25.604-121.414 67.080-163.42l-0.024 0.024c41.387-41.726 98.744-67.557 162.133-67.557s120.747 25.831 162.118 67.542l0.015 0.015c41.539 41.96 67.203 99.702 67.203 163.439 0 63.72-25.65 121.449-67.189 163.425l0.020-0.020zM845.909 260.113l-118.613-119.467-26.607 26.829 123.665 124.587c7.787-9.341 14.92-19.783 21.009-30.88l0.512-1.018zM799.386 317.133l-123.648-124.587-26.607 26.829 118.528 119.467c12.027-6.621 22.403-13.797 31.976-21.891l-0.283 0.234zM694.477 123.375l-92.518-30.327 30.106 93.235zM812.459 28.655c-35.019-35.315-83.556-57.178-137.199-57.178s-102.18 21.863-137.186 57.164l-0.013 0.013c-35.058 35.525-56.71 84.354-56.71 138.24s21.652 102.715 56.731 138.262l-0.021-0.022c35.014 35.312 83.544 57.174 137.181 57.174 20.446 0 40.15-3.177 58.645-9.063l-1.368 0.376-120.798-121.737c-1.916-1.929-3.393-4.297-4.265-6.94l-0.036-0.125-49.732-154.010c-0.545-1.637-0.86-3.522-0.86-5.481 0-4.911 1.977-9.36 5.179-12.594l-0.001 0.002c3.179-3.215 7.589-5.205 12.465-5.205 1.95 0 3.826 0.319 5.579 0.906l-0.124-0.036 152.815 50.108c2.754 0.917 5.105 2.405 7.013 4.333l0.002 0.002 120.917 121.856c5.414-17.191 8.534-36.96 8.534-57.458 0-0.128 0-0.256 0-0.384v0.020c0-0.164 0.001-0.358 0.001-0.552 0-53.713-21.713-102.354-56.839-137.626l0.007 0.007z" />
<glyph unicode="&#xe908;" glyph-name="sprinta-list" horiz-adv-x="1025" d="M797.237 960.256h-730.95c-8.289 0-15.009-6.72-15.009-15.009v0-102.453c-29.452-6.233-51.236-32.013-51.236-62.88s21.783-56.648 50.816-62.806l0.42-0.075v-27.321c-29.452-6.233-51.236-32.013-51.236-62.88s21.783-56.648 50.816-62.806l0.42-0.075v-27.321c-29.452-6.233-51.236-32.013-51.236-62.88s21.783-56.648 50.816-62.806l0.42-0.075v-27.321c-29.441-6.25-51.21-32.027-51.21-62.889s21.769-56.639 50.789-62.814l0.42-0.075v-27.321c-29.452-6.233-51.236-32.013-51.236-62.88s21.783-56.648 50.816-62.806l0.42-0.075v-102.453c0-8.289 6.72-15.009 15.009-15.009v0h136.314c8.078 0.281 14.52 6.897 14.52 15.018s-6.442 14.737-14.494 15.017l-0.026 0.001h-121.236v179.788c10.275-6.012 17.069-16.991 17.075-29.557v-0.001c-0.005-0.151-0.009-0.328-0.009-0.506 0-8.299 6.728-15.026 15.026-15.026s15.026 6.728 15.026 15.026c0 0.178-0.003 0.356-0.009 0.532l0.001-0.026c-0.041 29.366-19.76 54.114-46.675 61.771l-0.453 0.11v120.758c10.275-6.012 17.069-16.991 17.075-29.557v-0.001c0.281-8.078 6.897-14.52 15.018-14.52s14.737 6.442 15.017 14.494l0.001 0.026c-0.050 29.368-19.773 54.116-46.692 61.771l-0.454 0.11v120.775c10.28-6.015 17.075-17.001 17.075-29.575v0c0.281-8.078 6.897-14.52 15.018-14.52s14.737 6.442 15.017 14.494l0.001 0.026c-0.050 29.368-19.773 54.116-46.692 61.771l-0.454 0.11v120.775c10.275-6.012 17.069-16.991 17.075-29.557v-0.001c0.281-8.078 6.897-14.52 15.018-14.52s14.737 6.442 15.017 14.494l0.001 0.026c-0.044 29.37-19.77 54.121-46.692 61.771l-0.453 0.11v120.758c10.275-6.012 17.069-16.991 17.075-29.557v-0.001c-0.005-0.151-0.009-0.328-0.009-0.506 0-8.299 6.728-15.026 15.026-15.026s15.026 6.728 15.026 15.026c0 0.178-0.003 0.356-0.009 0.532l0.001-0.026c-0.041 29.366-19.76 54.114-46.675 61.771l-0.453 0.11v88.502h701v-101.172c0.281-8.078 6.897-14.52 15.018-14.52s14.737 6.442 15.017 14.494l0.001 0.026v116.113c0 0.020 0 0.044 0 0.068 0 8.299-6.728 15.026-15.026 15.026 0 0 0 0 0 0v0zM51.226 135.886c-12.531 5.246-21.175 17.409-21.175 31.59s8.644 26.343 20.95 31.506l0.225 0.084v-63.179zM51.226 288.967c-12.531 5.246-21.175 17.409-21.175 31.59s8.644 26.343 20.95 31.506l0.225 0.084v-63.179zM51.226 442.066c-12.531 5.246-21.175 17.409-21.175 31.59s8.644 26.343 20.95 31.506l0.225 0.084v-63.179zM51.226 595.148c-12.531 5.246-21.175 17.409-21.175 31.59s8.644 26.343 20.95 31.506l0.225 0.084v-63.179zM51.226 748.23c-12.531 5.246-21.175 17.409-21.175 31.59s8.644 26.343 20.95 31.506l0.225 0.084v-63.179zM314.189 747.905c-2.721 2.713-6.475 4.39-10.621 4.39s-7.9-1.677-10.621-4.39v0l-30.326-30.343-9.87 9.853c-2.702 2.639-6.402 4.267-10.482 4.267-8.289 0-15.009-6.72-15.009-15.009 0-4.080 1.628-7.78 4.27-10.485l20.488-20.488c2.714-2.72 6.467-4.402 10.612-4.402s7.898 1.683 10.612 4.402v0l40.981 40.981c2.697 2.718 4.364 6.462 4.364 10.595 0 4.15-1.681 7.908-4.399 10.63v0zM342.5 800.754h-139.882c-8.292-0.010-15.009-6.734-15.009-15.026v0-139.882c0-8.289 6.72-15.009 15.009-15.009v0h139.882c0.005 0 0.011 0 0.017 0 8.28 0 14.992 6.712 14.992 14.992 0 0.006 0 0.012 0 0.018v-0.001 139.882c0 0.005 0 0.011 0 0.017 0 8.289-6.72 15.009-15.009 15.009-0.006 0-0.012 0-0.018 0h0.001zM327.491 660.855h-109.864v109.864h109.864v-109.864zM647.332 766.723h-230.4c-8.289 0-15.009-6.72-15.009-15.009s6.72-15.009 15.009-15.009h230.382c8.313 0 15.052 6.739 15.052 15.052s-6.739 15.052-15.052 15.052v0zM548.755 696.713h-131.806c-8.078-0.281-14.52-6.897-14.52-15.018s6.442-14.737 14.494-15.017l0.026-0.001h131.806c8.323 0.005 15.069 6.753 15.069 15.078 0 8.327-6.75 15.078-15.078 15.078-0.003 0-0.006 0-0.009 0v0zM314.189 509.395c-2.717 2.721-6.472 4.404-10.621 4.404s-7.904-1.683-10.621-4.404v0l-30.326-30.326-9.87 9.853c-2.728 2.794-6.533 4.527-10.743 4.527-8.289 0-15.009-6.72-15.009-15.009 0-4.21 1.733-8.014 4.524-10.74l20.494-20.494c2.718-2.712 6.469-4.388 10.612-4.388s7.894 1.677 10.613 4.389v0l40.981 40.981c2.7 2.714 4.37 6.455 4.37 10.587 0 4.149-1.683 7.904-4.404 10.621v0zM342.5 562.329h-139.882c-8.292-0.010-15.009-6.734-15.009-15.026v0-140.019c0-8.289 6.72-15.009 15.009-15.009v0h139.882c0.005 0 0.011 0 0.017 0 8.28 0 14.992 6.712 14.992 14.992 0 0.006 0 0.012 0 0.018v-0.001 140.019c-0.029 8.267-6.738 14.958-15.009 14.958-0.006 0-0.012 0-0.018 0h0.001zM327.491 422.429h-109.864v109.864h109.864v-109.864zM647.332 528.297h-230.4c-8.078-0.281-14.52-6.897-14.52-15.018s6.442-14.737 14.494-15.017l0.026-0.001h230.382c8.299 0 15.026 6.728 15.026 15.026s-6.728 15.026-15.026 15.026v0zM548.755 458.288h-131.806c-8.078-0.281-14.52-6.897-14.52-15.018s6.442-14.737 14.494-15.017l0.026-0.001h131.806c8.305 0.005 15.035 6.738 15.035 15.044 0 8.308-6.735 15.044-15.044 15.044-0.003 0-0.006 0-0.009 0v0zM314.189 270.902c-2.717 2.721-6.472 4.404-10.621 4.404s-7.904-1.683-10.621-4.404v0l-30.326-30.343-9.87 9.87c-2.717 2.714-6.468 4.393-10.612 4.393-8.292 0-15.014-6.722-15.014-15.014 0-4.148 1.682-7.903 4.402-10.621l20.491-20.491c2.714-2.72 6.467-4.402 10.612-4.402s7.898 1.683 10.612 4.402v0l40.981 40.981c2.706 2.714 4.378 6.459 4.378 10.595 0 4.153-1.687 7.912-4.412 10.629v0zM342.5 323.836h-139.882c-8.289 0-15.009-6.72-15.009-15.009v0-139.882c0-8.293 6.718-15.017 15.008-15.026h139.883c8.289 0 15.009 6.72 15.009 15.009 0 0.006 0 0.012 0 0.018v-0.001 139.882c-0.039 8.251-6.736 14.924-14.992 14.924-0.012 0-0.024 0-0.036 0h0.002zM327.491 183.953h-109.864v109.778h109.864v-109.864zM812.281 415.719v353.241c-0.281 8.078-6.897 14.52-15.018 14.52s-14.737-6.442-15.017-14.494l-0.001-0.026v-351.618c-2.237 0-4.474 0-6.694-0.154h-1.537c-2.049 0-4.115-0.188-6.181-0.324l-2.22-0.154c-2.186-0.154-4.371-0.342-6.54-0.581h-1.007c-2.493-0.273-4.952-0.581-7.428-0.922l-1.981-0.29c-1.912-0.273-3.842-0.581-5.754-0.905l-1.895-0.342c-2.442-0.427-4.867-0.888-7.291-1.4l-0.956-0.222c-2.117-0.461-4.218-0.939-6.318-1.468l-1.981-0.495c-2.032-0.512-4.064-1.042-6.079-1.622l-1.11-0.307c-2.373-0.683-4.73-1.4-7.086-2.152l-1.537-0.512c-1.895-0.632-3.791-1.281-5.669-1.947l-1.708-0.598c-4.627-1.708-9.204-3.535-13.66-5.498l-1.537-0.7c-1.947-0.871-3.893-1.708-5.806-2.681l-0.939-0.444c-2.254-1.093-4.491-2.22-6.711-3.415l-0.871-0.478q-2.886-1.537-5.737-3.125l-1.264-0.717c-4.32-2.476-8.538-5.123-12.755-7.821-0.324-0.205-0.649-0.444-0.99-0.649-1.878-1.264-3.757-2.544-5.601-3.842l-0.615-0.427c-2.117-1.503-4.201-3.022-6.267-4.593v0c-1.981-1.486-3.91-3.022-5.84-4.576l-0.785-0.649c-3.944-3.21-7.803-6.574-11.543-10.023l-0.427-0.41q-2.681-2.476-5.276-5.123c-0.111-0.122-0.228-0.234-0.353-0.337l-0.006-0.005q-5.498-5.481-10.638-11.287c-0.141-0.146-0.275-0.302-0.4-0.465l-0.010-0.013q-5.123-5.874-9.989-12.072v0q-2.373-3.074-4.645-6.25l-0.205-0.256c-3.057-4.252-5.976-8.538-8.777-13.063 0-0.12-0.137-0.222-0.188-0.342q-4.218-6.711-7.974-13.66h-154.397c-8.078-0.281-14.52-6.897-14.52-15.018s6.442-14.737 14.494-15.017l0.026-0.001h140.873c0.004-0.015 0.006-0.033 0.006-0.051s-0.002-0.036-0.006-0.053v0.002c-1.11-2.988-2.152-6.028-3.125-9.084-0.12-0.324-0.222-0.649-0.324-0.973q-1.468-4.508-2.715-9.101c0-0.307-0.171-0.598-0.239-0.905q-2.647-9.682-4.474-19.671s0 0 0-0.12h-129.962c-8.078-0.281-14.52-6.897-14.52-15.018s6.442-14.737 14.494-15.017l0.026-0.001h126.359c-0.12-2.117-0.205-4.235-0.273-6.369v-0.239c0-2.186 0-4.388 0-6.608s0-3.944 0-5.891c0-0.666 0-1.298 0-1.964 0-1.298 0-2.613 0.154-3.927 0-0.751 0.085-1.503 0.137-2.271 0-1.212 0.137-2.408 0.222-3.603 0-0.768 0.12-1.554 0.188-2.322 0.102-1.178 0.205-2.391 0.324-3.569 0-0.734 0.154-1.486 0.222-2.22 0.137-1.247 0.273-2.51 0.427-3.757 0.085-0.649 0.154-1.298 0.256-1.947 0.171-1.4 0.376-2.8 0.581-4.201 0-0.461 0.137-0.939 0.222-1.417 0.256-1.708 0.546-3.415 0.854-5.123 0-0.137 0-0.273 0-0.41 8.281-45.361 28.309-85.065 56.799-117.071l-0.21 0.241h-340.707c-8.289 0-15.009-6.72-15.009-15.009s6.72-15.009 15.009-15.009h372.741c40.554-32.152 92.467-51.579 148.918-51.579 132.97 0 240.764 107.794 240.764 240.764 0 123.121-92.416 224.657-211.665 239.024l-1.15 0.113zM783.765-34.169c-101.114 0.132-185.558 71.344-206.055 166.344l-0.251 1.389c0 0.273-0.12 0.563-0.188 0.837-0.256 1.264-0.478 2.544-0.717 3.825-0.12 0.598-0.222 1.195-0.342 1.708-0.188 1.093-0.359 2.203-0.529 3.296-0.137 0.785-0.256 1.571-0.376 2.373l-0.41 2.937c-0.12 0.922-0.239 1.844-0.342 2.766s-0.205 1.793-0.307 2.681l-0.307 3.074c0 0.82-0.154 1.708-0.205 2.476-0.102 1.11-0.171 2.237-0.256 3.415 0 0.751-0.085 1.503-0.137 2.254 0 1.247-0.12 2.527-0.154 3.791 0 0.615 0 1.229 0 1.861 0 1.895 0 3.791 0 5.686 0.116 116.292 94.299 210.547 210.552 210.78h0.022c2.015 0 4.047 0 6.13-0.102h0.307c1.981 0 3.996-0.154 6.079-0.273 111.111-6.521 198.748-98.22 198.748-210.388 0-116.382-94.346-210.729-210.729-210.729-0.188 0-0.377 0-0.565 0.001h0.029zM783.765 342.789c-0.077 0-0.169 0-0.261 0-34.589 0-66.699-10.614-93.25-28.764l0.568 0.367c-3.852-2.757-6.333-7.217-6.333-12.256 0-8.299 6.728-15.026 15.026-15.026 3.019 0 5.829 0.89 8.184 2.422l-0.058-0.035c21.303 14.495 47.598 23.143 75.913 23.143 75.152 0 136.075-60.923 136.075-136.075s-60.923-136.075-136.075-136.075c-75.152 0-136.075 60.923-136.075 136.075 0 27.968 8.438 53.965 22.906 75.585l-0.311-0.493c1.564 2.332 2.497 5.202 2.497 8.29 0 8.291-6.721 15.013-15.013 15.013-5.203 0-9.789-2.647-12.482-6.668l-0.034-0.054c-17.268-25.793-27.559-57.525-27.559-91.661 0-91.797 74.416-166.213 166.213-166.213s166.213 74.416 166.213 166.213c0 91.773-74.377 166.174-166.142 166.213h-0.004zM798.979 222.458v54.642c0 8.289-6.72 15.009-15.009 15.009s-15.009-6.72-15.009-15.009v0-54.642c-18.349-6.444-31.273-23.608-31.299-43.795v-0.003c0-0.016 0-0.036 0-0.055 0-8.448 2.283-16.364 6.265-23.163l-0.117 0.217-20.832-23.291c-2.361-2.641-3.805-6.147-3.805-9.989 0-8.293 6.722-15.015 15.015-15.015 4.45 0 8.448 1.936 11.197 5.011l0.013 0.015 20.935 23.479c5.37-2.358 11.629-3.73 18.209-3.73 25.576 0 46.309 20.733 46.309 46.309 0 20.425-13.223 37.762-31.576 43.916l-0.327 0.095zM783.97 162.37c-8.997 0-16.29 7.293-16.29 16.29s7.293 16.29 16.29 16.29c8.997 0 16.29-7.293 16.29-16.29v0c-0.010-8.999-7.307-16.29-16.307-16.29-0.006 0-0.012 0-0.018 0h0.001z" />
<glyph unicode="&#xe909;" glyph-name="add-user" d="M380.736 413.184h5.952c1.11-0.026 2.418-0.040 3.729-0.040 50.708 0 96.325 21.802 127.987 56.543l0.123 0.137c38.098 53.847 60.898 120.868 60.898 193.215 0 13.576-0.803 26.965-2.364 40.122l0.154-1.592c0.078 2.029 0.123 4.411 0.123 6.804 0 68.068-35.997 127.729-89.993 160.984l-0.817 0.468c-28.987 16.351-63.619 26.038-100.503 26.176h-3.241c-0.068 0-0.148 0-0.228 0-36.804 0-71.393-9.486-101.455-26.146l1.074 0.546c-55.431-33.657-91.897-93.696-91.897-162.252 0-2.381 0.044-4.752 0.131-7.112l-0.010 0.341c-1.407-11.564-2.21-24.953-2.21-38.529 0-72.347 22.8-139.368 61.606-194.271l-0.708 1.056c31.659-34.763 77.107-56.495 127.631-56.495 1.413 0 2.821 0.017 4.226 0.051l-0.208-0.004zM240.32 696.896c0 0.576 0 1.152 0 1.472-0.329 3.545-0.517 7.666-0.517 11.831 0 74.863 60.689 135.552 135.552 135.552 2.478 0 4.941-0.067 7.386-0.198l-0.341 0.015h2.24c1.894 0.094 4.114 0.148 6.346 0.148 75.217 0 136.192-60.975 136.192-136.192 0-3.927-0.166-7.815-0.492-11.657l0.034 0.501c-0.049-0.221-0.076-0.475-0.076-0.736s0.028-0.515 0.081-0.76l-0.004 0.024c1.224-10.037 1.923-21.657 1.923-33.441 0-59.719-17.945-115.247-48.737-161.485l0.67 1.070c-22.562-24.538-54.817-39.86-90.65-39.86-1.882 0-3.753 0.042-5.614 0.126l0.264-0.009h-1.856c-1.637-0.078-3.556-0.123-5.485-0.123-35.793 0-68.006 15.327-90.433 39.776l-0.082 0.090c-30.224 45.389-48.228 101.171-48.228 161.158 0 11.52 0.664 22.886 1.956 34.060l-0.128-1.362zM767.936 184.256v0.576c0 1.472 0 2.944 0 4.608 0.685 5.296 1.076 11.423 1.076 17.64 0 58.647-34.781 109.171-84.842 132.068l-0.906 0.371-1.856 0.576c-59.011 16.451-110.635 40.53-157.164 71.636l1.964-1.236c-4.008 2.727-8.954 4.353-14.281 4.353-8.57 0-16.156-4.211-20.803-10.677l-0.052-0.076c-2.819-3.981-4.507-8.936-4.507-14.286 0-8.527 4.287-16.052 10.822-20.539l0.085-0.055c48.991-32.991 105.789-59.473 166.57-76.397l4.118-0.979c30.807-16.92 51.34-49.147 51.34-86.17 0-6.258-0.587-12.38-1.708-18.312l0.096 0.61c-0.047-0.698-0.074-1.514-0.074-2.336s0.027-1.637 0.080-2.446l-0.006 0.11c0.039-1.898 0.061-4.137 0.061-6.38 0-18.080-1.442-35.824-4.217-53.122l0.252 1.902c-96.243-47.983-209.642-76.066-329.6-76.066s-233.356 28.083-333.979 78.032l4.379-1.967c-2.543 15.018-3.997 32.319-3.997 49.96 0 2.686 0.034 5.365 0.101 8.035l-0.008-0.395c0 1.472 0 3.008 0 4.672-1.026 5.322-1.612 11.444-1.612 17.702 0 37.023 20.533 69.25 50.833 85.914l0.507 0.256c64.898 17.973 121.688 44.449 172.814 78.718l-2.126-1.342c6.62 4.542 10.907 12.067 10.907 20.594 0 5.35-1.687 10.305-4.559 14.364l0.052-0.078c-4.699 6.542-12.285 10.753-20.855 10.753-5.327 0-10.273-1.627-14.37-4.411l0.089 0.057c-44.549-29.988-96.189-54.080-151.445-69.505l-3.755-0.895-1.856-0.576c-51.38-23.181-86.495-73.959-86.495-132.939 0-5.973 0.36-11.862 1.060-17.646l-0.069 0.697c0.047-0.698 0.074-1.514 0.074-2.336s-0.027-1.637-0.080-2.446l0.006 0.11v-0.512c-0.127-3.164-0.199-6.877-0.199-10.607 0-26.14 3.554-51.449 10.204-75.472l-0.468 1.983c1.941-4.921 5.326-8.925 9.627-11.59l0.101-0.058c105.955-55.845 231.55-88.622 364.8-88.622s258.845 32.777 369.161 90.708l-4.361-2.087c4.352 2.78 7.718 6.765 9.668 11.484l0.060 0.164c6.067 22.399 9.553 48.117 9.553 74.649 0 3.255-0.052 6.497-0.157 9.727l0.012-0.471zM704 640h128v-64h-128v64zM896 640h128v-64h-128v64zM832 768h64v-320h-64v320z" />
<glyph unicode="&#xe90a;" glyph-name="tag" horiz-adv-x="808" d="M389.821 959.704c-203.762-9.113-368.010-166.696-387.533-366.7l-0.132-1.671c-1.218-11.934-1.913-25.788-1.913-39.805 0-27.418 2.658-54.215 7.73-80.148l-0.428 2.624s0.62-4.419 2.695-12.8c7.003-30.916 16.35-57.959 28.251-83.575l-1.061 2.544c40.421-97.011 134.144-259.234 344.28-435.766 6.013-5.087 13.855-8.18 22.42-8.18s16.407 3.093 22.471 8.222l-0.051-0.042c210.189 176.317 303.778 338.594 344.468 435.981 10.994 23.135 20.35 50.181 26.691 78.367l0.499 2.637c1.859 8.084 2.695 12.827 2.695 12.827v0c4.628 23.251 7.276 49.983 7.276 77.333 0 0.040 0 0.080 0 0.121v-0.007c0.005 0.714 0.007 1.558 0.007 2.403 0 224.132-181.695 405.827-405.827 405.827-4.409 0-8.801-0.070-13.176-0.21l0.639 0.016z" />
<glyph unicode="&#xe90b;" glyph-name="pin" d="M524.8 958.976c-204.652-0.233-370.499-166.044-370.79-370.66v-0.028c0-253.645 331.776-626.074 345.907-641.843 6.151-6.781 14.996-11.021 24.832-11.021s18.681 4.241 24.807 10.993l0.025 0.028c14.131 15.77 345.907 388.198 345.907 641.843-0.233 204.632-166.056 370.455-370.666 370.688h-0.022zM524.8 401.818c-0.030 0-0.066 0-0.102 0-103.041 0-186.573 83.531-186.573 186.573s83.531 186.573 186.573 186.573c103.041 0 186.573-83.531 186.573-186.573 0-0.036 0-0.072 0-0.108v0.006c-0.175-102.915-83.556-186.296-186.454-186.47h-0.017z" />
<glyph unicode="&#xe90c;" glyph-name="document" horiz-adv-x="768" d="M28.736 960h493.376c8.098-0.155 15.373-3.556 20.601-8.952l0.007-0.008 216.384-219.136c5.474-4.93 8.901-12.042 8.901-19.954 0-0.185-0.002-0.37-0.006-0.554v0.028-746.816c-0.18-15.772-12.954-28.501-28.726-28.608h-710.41c-15.782 0.107-28.556 12.836-28.736 28.591v966.417c0 0.019 0 0.042 0 0.065 0 15.922 12.835 28.846 28.722 28.991h0.014zM550.848 861.504v-121.6h119.68zM493.248 902.336h-435.648v-908.8h653.568v688.896h-188.864c-15.894 0.109-28.736 13.018-28.736 28.927 0 0.023 0 0.045 0 0.068v-0.004 190.976z" />
<glyph unicode="&#xe90d;" glyph-name="download" d="M981.402 271.667c-23.561-0.029-42.65-19.136-42.65-42.701 0-0.072 0-0.144 0.001-0.216v0.011-206.95h-853.504v206.95c0.016 0.44 0.026 0.958 0.026 1.477 0 23.555-19.095 42.65-42.65 42.65s-42.65-19.095-42.65-42.65c0-0.52 0.009-1.037 0.028-1.552l-0.002 0.075v-249.856c0-0.061 0-0.133 0-0.205 0-23.565 19.089-42.672 42.647-42.701h938.755c23.533 0.029 42.599 19.113 42.599 42.65 0 0.090 0 0.18-0.001 0.27v-0.014 249.856c0 0.076 0.001 0.166 0.001 0.256 0 23.537-19.066 42.621-42.596 42.65h-0.003zM480.666 220.774c7.796-8.408 18.901-13.654 31.232-13.654s23.436 5.245 31.207 13.626l0.025 0.027 245.146 265.421c7.080 7.657 11.422 17.936 11.422 29.23 0 12.442-5.271 23.653-13.701 31.522l-0.025 0.023c-7.534 7.107-17.719 11.475-28.924 11.475-12.366 0-23.489-5.32-31.206-13.797l-0.030-0.034-171.213-185.242v557.722c0 23.526-19.072 42.598-42.598 42.598s-42.598-19.072-42.598-42.598v0-558.080l-171.213 185.242c-7.818 8.46-18.971 13.74-31.356 13.74-11.216 0-21.421-4.33-29.035-11.409l0.026 0.024c-8.411-7.928-13.648-19.144-13.648-31.582 0-11.284 4.31-21.562 11.373-29.276l-0.030 0.033z" />
<glyph unicode="&#xe90e;" glyph-name="error" d="M512 960c-282.77 0-512-229.23-512-512s229.23-512 512-512c282.77 0 512 229.23 512 512v0c-0.333 282.636-229.365 511.668-511.969 512h-0.031zM512-24.62c-261.021 0-472.62 211.599-472.62 472.62s211.599 472.62 472.62 472.62c261.021 0 472.62-211.599 472.62-472.62v0c-0.308-260.897-211.723-472.312-472.59-472.62h-0.030zM703.152 639.152c-3.559 3.551-8.472 5.747-13.897 5.747s-10.338-2.196-13.897-5.748v0l-163.357-163.357-163.313 163.313c-3.456 3.070-8.034 4.945-13.049 4.945-10.875 0-19.69-8.816-19.69-19.69 0-5.015 1.875-9.593 4.963-13.070l-0.018 0.020 163.313-163.313-163.299-163.313c-4.082-3.624-6.641-8.886-6.641-14.745 0-10.875 8.816-19.69 19.69-19.69 5.859 0 11.12 2.559 14.727 6.62l0.018 0.020 163.299 163.313 163.313-163.313c3.456-3.070 8.034-4.945 13.049-4.945 10.875 0 19.69 8.816 19.69 19.69 0 5.015-1.875 9.593-4.963 13.070l0.018-0.020-163.313 163.313 163.313 163.313c3.585 3.56 5.803 8.491 5.803 13.941 0 5.428-2.201 10.341-5.759 13.897v0z" />
<glyph unicode="&#xe90f;" glyph-name="event" d="M512-64c-282.426 0-512 229.574-512 512s229.574 512 512 512c282.426 0 512-229.574 512-512s-229.574-512-512-512zM512 926.968c-264.258 0-478.968-214.71-478.968-478.968s214.71-478.968 478.968-478.968c264.258 0 478.968 214.71 478.968 478.968s-214.71 478.968-478.968 478.968zM739.923 705.652h-77.626v3.303c0 11.561-8.258 19.819-19.819 19.819v0h-260.955c-11.561 0-19.819-8.258-19.819-19.819v0-3.303h-77.626c-11.561 0-19.819-8.258-19.819-19.819v0-107.355c0-74.323 39.639-115.613 113.961-117.265 6.606-16.516 14.865-31.381 26.426-46.245 14.865-18.168 33.032-33.032 54.503-41.29v-100.748h-77.626c-11.561 0-19.819-8.258-19.819-19.819v0-97.445c0-11.561 8.258-19.819 19.819-19.819 0 0 0 0 0 0h260.955c11.561 0 19.819 8.258 19.819 19.819v0 97.445c0 11.561-8.258 19.819-19.819 19.819v0h-77.626v100.748c21.471 9.91 39.639 23.123 54.503 41.29 11.561 13.213 19.819 29.729 26.426 46.245 72.671 1.652 113.961 42.942 113.961 117.265v107.355c0 11.561-8.258 19.819-19.819 19.819 0 0 0 0 0 0zM303.897 578.477v89.187h57.806v-120.568c0-14.865 1.652-29.729 3.303-44.594-41.29 3.303-61.11 28.077-61.11 75.974v0zM622.658 231.639v-57.806h-221.316v57.806h221.316zM525.213 271.277h-24.774v90.839c4.955 0 8.258 0 13.213 0s8.258 0 13.213 0l-1.652-90.839zM512 401.755c-64.413 0-110.658 61.11-110.658 143.69v143.69h221.316v-143.69c0-82.581-46.245-143.69-110.658-143.69zM720.103 578.477c0-47.897-19.819-72.671-62.761-77.626 3.303 14.865 3.303 29.729 3.303 44.594v120.568h57.806v-87.535zM515.303 642.89l21.471-52.852 54.503-4.955c1.652 0 4.955-3.303 3.303-4.955 0-1.652 0-1.652-1.652-3.303l-41.29-36.335 11.561-54.503c0-1.652 0-4.955-3.303-4.955-1.652 0-1.652 0-3.303 0l-44.594 29.729-46.245-29.729c-1.652-1.652-4.955 0-6.606 1.652 0 1.652 0 1.652 0 3.303l11.561 54.503-41.29 36.335c-1.652 1.652-1.652 4.955 0 6.606 0 0 1.652 1.652 3.303 1.652l54.503 4.955 21.471 52.852c0 1.652 3.303 3.303 4.955 3.303s1.652-1.652 1.652-3.303z" />
<glyph unicode="&#xe910;" glyph-name="picture" d="M1024 928c0 19.2-12.8 32-32 32h-960c-19.2 0-32-12.8-32-32v-966.4c0 0 0 0 0 0 0-12.8 12.8-25.6 32-25.6h640c0 0 0 0 0 0h326.4c0 0 0 0 0 0 12.8 0 25.6 6.4 25.6 19.2 0 6.4 0 6.4 0 12.8v960zM966.4 902.4v-678.4l-275.2 249.6c-12.8 12.8-32 12.8-38.4 0l-230.4-230.4-76.8 70.4c-6.4 6.4-19.2 6.4-25.6 6.4s-12.8-6.4-19.2-6.4l-243.2-268.8v857.6h908.8zM460.8 198.4l211.2 204.8 294.4-268.8v-147.2h-288l-217.6 211.2zM595.2-6.4h-499.2l230.4 256 268.8-256zM332.8 441.6c76.8 0 140.8 64 140.8 140.8 0 0 0 0 0 0 0 76.8-64 140.8-140.8 140.8-83.2 0-140.8-64-140.8-140.8s64-140.8 140.8-140.8zM332.8 659.2c44.8 0 83.2-38.4 83.2-83.2s-38.4-83.2-83.2-83.2-83.2 44.8-83.2 89.6 38.4 76.8 83.2 76.8z" />
<glyph unicode="&#xe911;" glyph-name="shower" horiz-adv-x="864" d="M773.427 489.677h-683.93c0 115.766 93.847 209.613 209.613 209.613v0h58.675v260.71h147.354v-260.71h58.778c115.722-0.058 209.51-93.883 209.51-209.613v0zM466.227 406.016v0c-0.174 19.209-15.786 34.713-35.019 34.713-19.341 0-35.021-15.679-35.021-35.021s15.679-35.021 35.021-35.021c0.036 0 0.071 0 0.107 0h-0.005c0.032 0 0.069 0 0.106 0 19.228 0 34.816 15.588 34.816 34.816 0 0.18-0.001 0.36-0.004 0.539v-0.027zM466.227 115.61v0.819c-0.058 19.128-15.577 34.612-34.713 34.612-0.072 0-0.144 0-0.216-0.001h0.011c-0.030 0-0.066 0-0.102 0-19.455 0-35.226-15.771-35.226-35.226s15.771-35.226 35.226-35.226c19.382 0 35.109 15.654 35.225 35.010v0.011zM466.227 260.813v0.819c-0.057 19.072-15.531 34.51-34.611 34.51-0.108 0-0.216 0-0.324-0.001h0.016c-19.398 0-35.123-15.725-35.123-35.123s15.725-35.123 35.123-35.123c19.326 0 35.006 15.609 35.123 34.907v0.011zM466.227-29.082v0c-0.174 19.209-15.786 34.713-35.019 34.713-19.341 0-35.021-15.679-35.021-35.021s15.679-35.021 35.021-35.021c0.036 0 0.071 0 0.107 0h-0.005c0.001 0 0.002 0 0.002 0 19.285 0 34.918 15.634 34.918 34.918 0 0.144-0.001 0.288-0.003 0.431v-0.022zM841.523-22.323c12.97 5.292 21.944 17.807 21.944 32.419 0 4.663-0.914 9.112-2.572 13.178l0.084-0.233v0.717c-5.121 12.836-17.446 21.741-31.851 21.741-4.806 0-9.38-0.991-13.529-2.78l0.222 0.085c-12.853-5.411-21.712-17.902-21.712-32.462 0-19.291 15.553-34.95 34.803-35.122h0.016c4.581 0.051 8.937 0.949 12.941 2.543l-0.243-0.086zM793.293 109.568c12.996 5.213 22.006 17.707 22.006 32.304 0 4.707-0.937 9.196-2.635 13.289l0.085-0.23v0.717c-5.152 12.842-17.498 21.746-31.923 21.746-4.817 0-9.401-0.993-13.561-2.785l0.223 0.085c-12.986-5.351-21.96-17.909-21.96-32.563 0-19.398 15.725-35.123 35.123-35.123 0.016 0 0.032 0 0.049 0h-0.003c4.623 0.034 9.017 0.972 13.028 2.644l-0.228-0.084zM742.093 240.435c14.491 4.39 24.859 17.627 24.859 33.285 0 3.615-0.553 7.101-1.578 10.378l0.066 0.061c-4.381 14.378-17.527 24.659-33.073 24.659-3.732 0-7.325-0.592-10.691-1.688l0.244 0.069c-14.506-4.538-24.85-17.855-24.85-33.587 0-19.386 15.706-35.104 35.088-35.123h0.002c3.699 0.093 7.206 0.799 10.461 2.018l-0.221-0.073zM696.73 373.555c13.024 5.2 22.059 17.707 22.059 32.325 0 4.661-0.919 9.107-2.584 13.167l0.084-0.231v0.717c-5.17 12.875-17.55 21.801-32.014 21.801-4.781 0-9.334-0.975-13.472-2.737l0.225 0.085c-12.986-5.351-21.96-17.909-21.96-32.563 0-19.398 15.725-35.123 35.123-35.123 0.016 0 0.032 0 0.049 0h-0.003c0.152-0.003 0.332-0.004 0.513-0.004 4.426 0 8.649 0.866 12.509 2.439l-0.222-0.080zM635.29-44.442c16.133 3.249 28.113 17.308 28.113 34.165 0 2.405-0.244 4.752-0.708 7.020l0.038-0.224v0.922c-3.306 15.944-17.237 27.756-33.926 27.756-2.491 0-4.92-0.263-7.261-0.763l0.227 0.041c-16.334-3.181-28.494-17.374-28.494-34.407 0-19.341 15.679-35.021 35.021-35.021 0.081 0 0.163 0 0.244 0.001h-0.012c0.83-0.109 1.791-0.171 2.766-0.171 1.632 0 3.222 0.174 4.755 0.505l-0.148-0.027zM610.304 93.696c17.764 1.791 31.515 16.666 31.515 34.752 0 1.249-0.066 2.482-0.193 3.697l0.013-0.152v0.614c-1.765 17.446-16.376 30.949-34.139 30.949-1.393 0-2.767-0.083-4.116-0.244l0.163 0.016c-17.709-1.966-31.356-16.85-31.356-34.921 0-19.261 15.505-34.902 34.714-35.121h0.021c0.294-0.016 0.638-0.024 0.985-0.024 1.062 0 2.105 0.083 3.122 0.244l-0.113-0.015zM592.077 232.96c16.131 3.299 28.095 17.375 28.095 34.245 0 2.376-0.237 4.696-0.689 6.938l0.038-0.224v0.717c-3.245 15.901-17.118 27.696-33.746 27.696-2.555 0-5.046-0.279-7.443-0.807l0.228 0.042c-16.336-3.179-28.498-17.373-28.498-34.408 0-19.341 15.679-35.021 35.021-35.021 0.119 0 0.238 0.001 0.356 0.002h-0.018c0.065-0.001 0.143-0.001 0.22-0.001 2.501 0 4.933 0.299 7.26 0.863l-0.21-0.043zM570.573 371.712c16.087 3.239 28.033 17.257 28.033 34.065 0 2.441-0.252 4.822-0.731 7.121l0.039-0.225v0.512c-3.554 15.809-17.473 27.443-34.109 27.443-19.285 0-34.918-15.634-34.918-34.918s15.634-34.918 34.918-34.918c0.003 0 0.007 0 0.010 0h-0.001c0.219-0.006 0.477-0.009 0.735-0.009 2.352 0 4.643 0.264 6.843 0.765l-0.206-0.039zM65.946-2.662v0.717c1.554 3.786 2.456 8.181 2.456 12.786 0 14.564-9.022 27.020-21.781 32.086l-0.233 0.082c-3.426 1.226-7.379 1.935-11.498 1.935-19.398 0-35.123-15.725-35.123-35.123 0-14.099 8.307-26.257 20.293-31.848l0.216-0.090c3.855-1.535 8.322-2.435 12.995-2.458h0.009c0.288-0.009 0.627-0.013 0.967-0.013 14.606 0 27.106 9.021 32.23 21.796l0.083 0.234zM114.176 129.229v0.717c1.582 3.811 2.501 8.237 2.501 12.878 0 14.523-8.999 26.945-21.724 31.994l-0.233 0.081c-3.426 1.226-7.379 1.935-11.498 1.935-19.398 0-35.123-15.725-35.123-35.123 0-14.099 8.307-26.257 20.293-31.848l0.216-0.090c3.814-1.611 8.247-2.551 12.899-2.56h0.003c0.19-0.004 0.414-0.006 0.639-0.006 14.581 0 27.081 8.911 32.351 21.585l0.085 0.232zM163.43 263.987v0.717c1.052 3.177 1.658 6.834 1.658 10.633 0 19.285-15.634 34.918-34.918 34.918-16.186 0-29.8-11.013-33.757-25.954l-0.055-0.244c-0.938-3.003-1.478-6.456-1.478-10.035 0-15.703 10.396-28.978 24.681-33.318l0.247-0.064c2.926-0.976 6.296-1.539 9.797-1.539 0.156 0 0.312 0.001 0.467 0.003h-0.024c0.236-0.006 0.515-0.009 0.794-0.009 15.558 0 28.726 10.235 33.137 24.339l0.066 0.246zM210.534 392.909v0.717c1.557 3.795 2.461 8.201 2.461 12.817 0 14.584-9.020 27.061-21.785 32.157l-0.233 0.082c-3.782 1.507-8.164 2.381-12.751 2.381-14.8 0-27.474-9.1-32.732-22.011l-0.085-0.236c-1.581-3.867-2.498-8.354-2.498-13.056 0-19.533 15.835-35.368 35.368-35.368 14.832 0 27.531 9.129 32.785 22.075l0.085 0.237zM267.469-16.691v0.614c0.461 2.116 0.725 4.546 0.725 7.039 0 16.817-12.029 30.824-27.952 33.887l-0.217 0.035c-1.953 0.385-4.198 0.606-6.495 0.606-17.004 0-31.185-12.083-34.427-28.131l-0.038-0.225c-0.428-2.049-0.673-4.403-0.673-6.815 0-16.821 11.93-30.857 27.79-34.107l0.224-0.038c1.835-0.464 3.941-0.731 6.11-0.731 0.3 0 0.599 0.005 0.896 0.015l-0.043-0.001c0.266-0.007 0.578-0.011 0.892-0.011 16.564 0 30.418 11.601 33.881 27.121l0.043 0.231zM289.587 125.338v0.102c0.108 1.025 0.169 2.213 0.169 3.417 0 18.021-13.773 32.825-31.367 34.461l-0.137 0.010c-0.597 0.036-1.295 0.057-1.998 0.057-19.398 0-35.123-15.725-35.123-35.123 0-17.646 13.014-32.253 29.967-34.747l0.191-0.023c0.522-0.049 1.128-0.076 1.741-0.076s1.219 0.028 1.818 0.082l-0.077-0.006c0.207-0.004 0.451-0.007 0.696-0.007 18.025 0 32.86 13.658 34.722 31.189l0.013 0.152zM310.579 260.608v0.717c0.461 2.116 0.725 4.546 0.725 7.039 0 16.817-12.029 30.824-27.952 33.887l-0.217 0.035c-1.654 0.276-3.561 0.434-5.504 0.434-19.398 0-35.123-15.725-35.123-35.123 0-16.445 11.301-30.25 26.561-34.072l0.242-0.051c2.011-0.456 4.321-0.718 6.691-0.718 0.096 0 0.191 0 0.287 0.001h-0.015c0.272-0.008 0.591-0.012 0.912-0.012 16.584 0 30.459 11.595 33.963 27.12l0.044 0.233zM332.186 399.36v0.717c0.447 2.086 0.703 4.482 0.703 6.939 0 16.865-12.063 30.913-28.031 33.986l-0.217 0.035c-1.904 0.364-4.095 0.572-6.334 0.572-17.032 0-31.248-12.052-34.587-28.094l-0.040-0.229c-0.423-2.037-0.666-4.378-0.666-6.776 0-16.892 12.030-30.974 27.99-34.147l0.222-0.037c1.962-0.457 4.214-0.719 6.527-0.719 0.117 0 0.234 0.001 0.351 0.002h-0.018c0.193-0.004 0.421-0.006 0.649-0.006 16.565 0 30.435 11.534 34.019 27.009l0.046 0.235z" />
<glyph unicode="&#xe912;" glyph-name="food" horiz-adv-x="1030" d="M326.963 320.512c-4.403 0-8.704-0.614-13.107-0.614-12.452 0.124-24.472 1.723-35.971 4.629l1.053-0.225-263.27-263.27c-6.017-5.975-9.741-14.252-9.741-23.398s3.724-17.423 9.739-23.397l68.098-68.098c5.97-5.986 14.226-9.689 23.347-9.689s17.377 3.703 23.346 9.689l316.519 316.315-58.675 63.283zM1019.802 742.298c-5.737 5.702-13.644 9.226-22.374 9.226s-16.637-3.524-22.376-9.227l-170.596-170.596c-7.474-7.499-17.813-12.14-29.235-12.14-22.794 0-41.272 18.478-41.272 41.272 0 11.372 4.599 21.669 12.038 29.134l169.778 169.778c5.971 5.958 9.665 14.196 9.665 23.296 0 18.175-14.734 32.909-32.909 32.909-9.075 0-17.292-3.673-23.245-9.614l-169.676-169.778c-7.478-7.491-17.815-12.125-29.235-12.125-22.814 0-41.309 18.495-41.309 41.309 0 11.394 4.613 21.711 12.074 29.185l170.597 170.597c5.726 5.726 9.268 13.637 9.268 22.374 0 17.475-14.167 31.642-31.642 31.642-8.738 0-16.648-3.542-22.374-9.268l-191.898-191.898c-31.867-32.057-51.565-76.242-51.565-125.028 0-15.981 2.114-31.468 6.077-46.197l-0.284 1.241 128.614-128.614c13.464-3.665 28.924-5.771 44.875-5.771 48.775 0 92.952 19.689 125.015 51.553l191.991 191.889c5.732 5.742 9.277 13.67 9.277 22.426s-3.545 16.683-9.277 22.426v0zM87.962 932.966c-6.314 6.287-15.021 10.173-24.637 10.173-13.707 0-25.569-7.898-31.285-19.391l-0.091-0.203c-19.089-38.588-30.257-84.018-30.257-132.057 0-83.753 33.946-159.577 88.83-214.465l163.225-163.225c15.462-15.499 36.842-25.088 60.462-25.088 0.020 0 0.039 0 0.059 0h7.267l94.72 8.090 413.389-445.952c6.231-6.718 15.042-10.966 24.848-11.161l0.035-0.001h0.614c9.64 0.007 18.364 3.919 24.678 10.24v0l70.758 70.758c6.33 6.29 10.249 15.001 10.249 24.627s-3.918 18.337-10.247 24.625l-0.002 0.002z" />
<glyph unicode="&#xe913;" glyph-name="water" horiz-adv-x="717" d="M576 674.406c-64.398 104.525-128.542 194.19-198.125 279.232l3.565-4.493c-5.393 6.66-13.57 10.883-22.733 10.883s-17.339-4.223-22.69-10.828l-0.043-0.055c-65.925-80.521-130.066-170.183-188.29-263.904l-6.27-10.835c-75.828-106.756-126.604-236.285-141.127-376.576l-0.288-3.43c0-197.939 160.461-358.4 358.4-358.4s358.4 160.461 358.4 358.4v0c-14.58 143.67-65.156 273.219-142.477 382.505l1.677-2.498zM407.552 68.198c-19.185-5.139-41.212-8.090-63.927-8.090-0.206 0-0.411 0-0.617 0.001h0.032c-2.256-0.077-4.907-0.122-7.569-0.122-126.696 0-230.026 100.039-235.308 225.436l-0.016 0.478c1.422 38.048 9.948 73.745 24.283 106.309l-0.731-1.861c2.431 5.472 7.817 9.218 14.079 9.218 1.254 0 2.472-0.15 3.639-0.434l-0.105 0.022c6.657-1.277 11.619-7.055 11.619-13.991 0-0.41-0.017-0.815-0.051-1.216l0.004 0.052c-0.847-7.312-1.331-15.784-1.331-24.37v-0.001c4.423-140.43 114.252-253.848 252.756-263.935l0.889-0.052c7.005-0.468 12.615-5.867 13.408-12.733l0.006-0.067c0.019-0.277 0.031-0.6 0.031-0.926 0-6.707-4.706-12.314-10.997-13.7l-0.093-0.017z" />
<glyph unicode="&#xe914;" glyph-name="bed" horiz-adv-x="1408" d="M384 413.824c3.827-0.255 8.296-0.4 12.8-0.4 113.108 0 204.8 91.692 204.8 204.8s-91.692 204.8-204.8 204.8c-112.967 0-204.572-91.464-204.8-204.378v-0.022c-0.058-1.789-0.091-3.893-0.091-6.005 0-107.457 85.209-195.013 191.746-198.785l0.345-0.010zM1152 823.424h-512v-477.824h-512v614.4h-128v-1024h128v204.8h1152v-204.8h128v614.4c0.084 2.484 0.131 5.404 0.131 8.335 0 143.203-113.661 259.859-255.69 264.677l-0.441 0.012z" />
<glyph unicode="&#xe915;" glyph-name="lock" horiz-adv-x="838" d="M817.869 474.214c-12.31 12.643-29.496 20.487-48.514 20.487-0.332 0-0.664-0.002-0.995-0.007l0.050 0.001h-23.245v139.674c0 180.011-145.928 325.939-325.939 325.939s-325.939-145.928-325.939-325.939v0-139.674h-23.245c-0.091 0-0.2 0.001-0.308 0.001-38.4 0-69.53-31.129-69.53-69.53 0-0.108 0-0.216 0.001-0.325v0.017-419.123c0-0.091-0.001-0.2-0.001-0.308 0-38.4 31.129-69.53 69.53-69.53 0.108 0 0.216 0 0.325 0.001h698.351c0.091 0 0.2-0.001 0.308-0.001 38.4 0 69.53 31.129 69.53 69.53 0 0.108 0 0.216-0.001 0.325v-0.017 419.123c0.006 0.331 0.009 0.721 0.009 1.113 0 18.915-7.806 36.006-20.371 48.229l-0.015 0.015zM605.491 494.694h-372.531v139.674c0 102.872 83.394 186.266 186.266 186.266s186.266-83.394 186.266-186.266v0-139.674z" />
<glyph unicode="&#xe916;" glyph-name="insurance" horiz-adv-x="838" d="M419.226 959.488l-418.816-186.061v-278.938c-10.983-36.43-17.306-78.294-17.306-121.636 0-240.863 195.258-436.122 436.122-436.122s436.122 195.258 436.122 436.122c0 43.341-6.322 85.206-18.095 124.723l0.789-3.087v278.938zM326.144 215.552l-186.061 185.958 65.843 65.843 120.218-120.218 306.381 306.176 65.843-65.843z" />
<glyph unicode="&#xe917;" glyph-name="wc" horiz-adv-x="870" d="M179.2 755.2c56.554 0 102.4 45.846 102.4 102.4s-45.846 102.4-102.4 102.4c-56.554 0-102.4-45.846-102.4-102.4v0c0-56.554 45.846-102.4 102.4-102.4v0zM640 755.2c56.554 0 102.4 45.846 102.4 102.4s-45.846 102.4-102.4 102.4c-56.554 0-102.4-45.846-102.4-102.4v0c0-56.554 45.846-102.4 102.4-102.4v0zM256.205 704h-153.6c-56.554 0-102.4-45.846-102.4-102.4v0-281.395h76.595v-384.205h204.8v383.693h76.698v281.907c0 0 0 0 0 0 0 56.482-45.729 102.283-102.184 102.4h-0.011zM740.045 633.958c-13.95 40.986-52.067 69.96-96.963 70.042h-5.949c-44.906-0.082-83.023-29.056-96.759-69.321l-0.214-0.721-130.56-390.758h153.6v-307.2h153.6v307.2h153.6z" />
<glyph unicode="&#xe918;" glyph-name="shirt" horiz-adv-x="1350" d="M1351.066 785.92c0.353-1.869 0.555-4.020 0.555-6.217 0-7.568-2.393-14.577-6.465-20.311l0.073 0.109-161.894-241.152c-5.71-8.981-15.608-14.853-26.877-14.853-0.92 0-1.831 0.039-2.731 0.116l0.117-0.008c-0.38-0.016-0.826-0.026-1.273-0.026-4.857 0-9.455 1.105-13.558 3.077l0.188-0.081-129.536 29.389v-570.675c0.069-0.728 0.108-1.573 0.108-2.428 0-15.156-12.287-27.443-27.443-27.443-1.813 0-3.584 0.176-5.299 0.511l0.173-0.028h-632.832c-1.092-0.162-2.352-0.255-3.634-0.255-14.365 0-26.010 11.645-26.010 26.010 0 1.282 0.093 2.542 0.272 3.775l-0.017-0.14v570.675l-117.76-29.389c-3.164-1.741-6.934-2.765-10.943-2.765-9.664 0-17.938 5.95-21.36 14.386l-0.055 0.154-161.894 241.152c-2.483 4.513-3.943 9.891-3.943 15.611 0 2.82 0.355 5.557 1.023 8.169l-0.049-0.228c1.84 9.588 8.561 17.261 17.425 20.421l0.188 0.059 326.758 155.853h153.6c1.092 0.162 2.352 0.255 3.634 0.255 14.365 0 26.010-11.645 26.010-26.010 0-1.282-0.093-2.542-0.272-3.775l0.017 0.14c1.546-32.783 20.691-60.759 48.141-74.827l0.499-0.232c28.153-18.915 62.727-30.332 99.945-30.719l0.1-0.001c37.819 0.515 72.877 11.903 102.312 31.169l-0.731-0.449c28.517 13.934 48.2 42.005 49.962 74.837l0.010 0.222c-0.164 1.097-0.257 2.362-0.257 3.649 0 14.365 11.645 26.010 26.010 26.010 1.319 0 2.615-0.098 3.882-0.288l-0.143 0.018h153.6l322.458-152.986c9.088-3.163 15.835-10.863 17.588-20.316l0.025-0.164z" />
<glyph unicode="&#xe919;" glyph-name="prize" horiz-adv-x="1133" d="M1113.293 770.765c-11.432 11.521-27.273 18.652-44.78 18.652-0.493 0-0.985-0.006-1.476-0.017l0.073 0.001h-195.994v64.102c0.003 0.312 0.005 0.68 0.005 1.049 0 29.24-12.255 55.617-31.909 74.276l-0.045 0.042c-19.24 19.362-45.886 31.346-75.33 31.346-0.553 0-1.105-0.004-1.656-0.013l0.083 0.001h-391.782c-0.468 0.007-1.019 0.012-1.572 0.012-29.444 0-56.090-11.984-75.325-31.341l-0.005-0.006c-19.699-18.701-31.954-45.078-31.954-74.318 0-0.369 0.002-0.737 0.006-1.105v0.056-64.102h-195.994c-0.398 0.009-0.866 0.014-1.336 0.014-17.559 0-33.454-7.129-44.947-18.65l-0.001-0.001c-11.748-11.211-19.053-26.991-19.053-44.477 0-0.312 0.002-0.623 0.007-0.933l-0.001 0.047v-85.402c0.696-35.408 11.128-68.241 28.717-96.105l-0.454 0.771c20.541-33.897 45.9-62.583 75.529-86.127l0.657-0.504c33.72-26.589 72.7-48.582 114.821-64.078l2.939-0.946c43.28-16.81 93.338-27.514 145.603-29.666l0.931-0.030c19.029-23.874 40.258-44.713 63.751-62.749l0.863-0.637c15.487-12.77 27.667-28.993 35.436-47.523l0.301-0.81c6.495-17.080 10.255-36.83 10.255-57.458 0-0.788-0.005-1.575-0.016-2.36l0.001 0.119c0.033-0.914 0.052-1.989 0.052-3.067 0-21.911-7.75-42.012-20.658-57.711l0.126 0.158c-14.918-15.434-35.805-25.016-58.93-25.016-2.614 0-5.2 0.122-7.751 0.362l0.326-0.025c-0.353 0.003-0.771 0.005-1.189 0.005-33.93 0-65.159-11.564-89.961-30.967l0.321 0.242c-24.139-16.856-39.733-44.504-39.733-75.795 0-0.209 0.001-0.418 0.002-0.627v0.032-42.701c-0.010-0.244-0.016-0.531-0.016-0.819 0-5.685 2.316-10.829 6.057-14.54l0.001-0.001c3.853-3.686 9.089-5.955 14.854-5.955 0.286 0 0.571 0.006 0.854 0.017l-0.041-0.001h566.067c0.243-0.010 0.527-0.015 0.813-0.015 5.765 0 11.001 2.269 14.862 5.962l-0.008-0.008c3.742 3.712 6.058 8.856 6.058 14.541 0 0.288-0.006 0.575-0.018 0.86l0.001-0.041v42.701c0.001 0.177 0.002 0.386 0.002 0.595 0 31.291-15.594 58.939-39.435 75.598l-0.298 0.198c-24.505 19.161-55.757 30.724-89.709 30.724-0.394 0-0.787-0.002-1.18-0.005h0.060c-2.225-0.215-4.811-0.337-7.425-0.337-23.125 0-44.013 9.582-58.908 24.992l-0.022 0.023c-12.782 15.542-20.532 35.643-20.532 57.553 0 1.079 0.019 2.153 0.056 3.223l-0.004-0.155c-0.010 0.666-0.015 1.453-0.015 2.241 0 20.628 3.761 40.378 10.634 58.602l-0.378-1.144c8.071 19.34 20.251 35.562 35.528 48.165l0.209 0.168c24.356 18.673 45.585 39.512 64.050 62.653l0.565 0.732c53.197 2.182 103.255 12.886 149.743 30.782l-3.209-1.086c45.060 16.442 84.040 38.435 118.664 65.71l-0.904-0.686c30.286 24.048 55.645 52.734 75.385 85.212l0.801 1.418c17.134 27.093 27.566 59.927 28.259 95.148l0.003 0.187v85.402c-0.103 17.995-7.926 34.143-20.323 45.315l-0.055 0.049zM151.757 532.070c-35.142 24.669-59.173 63.117-64.242 107.33l-0.065 0.702v63.898h174.080c-0.068-3.317-0.107-7.227-0.107-11.146 0-85.562 18.557-166.789 51.865-239.877l-1.479 3.625c-61.833 11.388-116.099 38.026-160.531 75.867l0.48-0.399zM1045.299 640c-5.175-44.902-29.194-83.336-63.824-107.709l-0.483-0.323c-44.025-37.342-98.31-63.933-158.037-75.039l-2.117-0.327c31.829 69.491 50.386 150.749 50.386 236.34 0 3.924-0.039 7.84-0.117 11.745l0.009-0.585h174.080v-64.102z" />
<glyph unicode="&#xe91a;" glyph-name="hospital" d="M37.786 314.88h341.094v-341.402c0-20.020 16.229-36.25 36.25-36.25v0h193.331c20.020 0 36.25 16.229 36.25 36.25v341.402h341.299c0.030 0 0.067 0 0.103 0 19.964 0 36.147 16.184 36.147 36.147 0 0.036 0 0.072 0 0.108v-0.006 193.331c0 0.030 0 0.067 0 0.103 0 19.964-16.184 36.147-36.147 36.147-0.036 0-0.072 0-0.108 0h-340.884v341.299c0 0.030 0 0.067 0 0.103 0 19.964-16.184 36.147-36.147 36.147-0.036 0-0.072 0-0.108 0h-193.325c-0.030 0-0.067 0-0.103 0-19.964 0-36.147-16.184-36.147-36.147 0-0.036 0-0.072 0-0.108v0.006-340.89h-341.299c-0.030 0-0.067 0-0.103 0-19.964 0-36.147-16.184-36.147-36.147 0-0.036 0-0.072 0-0.108v0.006-193.331c-0.002-0.152-0.004-0.332-0.004-0.512 0-19.929 16.127-36.091 36.043-36.147h0.005z" />
<glyph unicode="&#xe91b;" glyph-name="kit" horiz-adv-x="755" d="M595.968 707.277v34.509c0 120.573-97.744 218.317-218.317 218.317s-218.317-97.744-218.317-218.317v0-34.509h-158.618v-633.651c0.117-75.998 61.722-137.567 137.722-137.626h478.418c76.006 0.058 137.611 61.628 137.728 137.614v633.662h-158.618zM213.094 546.509c-25.562 0-46.285 20.722-46.285 46.285s20.722 46.285 46.285 46.285c25.562 0 46.285-20.722 46.285-46.285v0c0-25.562-20.722-46.285-46.285-46.285v0zM495.309 707.277h-235.52v34.509c0 65.037 52.723 117.76 117.76 117.76s117.76-52.723 117.76-117.76v0-34.509zM542.208 546.509c-0.030 0-0.066 0-0.102 0-25.562 0-46.285 20.722-46.285 46.285s20.722 46.285 46.285 46.285c25.562 0 46.285-20.722 46.285-46.285v0c0 0 0 0 0 0 0-25.526-20.664-46.226-46.177-46.285h-0.006z" />
<glyph unicode="&#xe91c;" glyph-name="camera" d="M512 550.4c-84.831 0-153.6-68.769-153.6-153.6s68.769-153.6 153.6-153.6c84.831 0 153.6 68.769 153.6 153.6v0c0 0.012 0 0.027 0 0.041 0 84.808-68.751 153.559-153.559 153.559-0.014 0-0.029 0-0.043 0h0.002zM921.6 704h-122.88c-18.433 0.873-33.927 12.577-40.32 28.854l-0.107 0.309-31.785 95.314c-6.513 16.57-22.003 28.257-40.326 29.119l-0.102 0.004h-348.16c-18.43-0.884-33.918-12.583-40.32-28.854l-0.107-0.309-31.785-95.314c-6.53-16.557-22.011-28.235-40.323-29.119l-0.104-0.004h-122.88c-56.489-0.163-102.237-45.912-102.4-102.385v-460.815c0.163-56.489 45.912-102.237 102.385-102.4h819.215c56.489 0.163 102.237 45.912 102.4 102.385v460.815c-0.163 56.489-45.912 102.237-102.385 102.4h-0.015zM512 140.8c-141.385 0-256 114.615-256 256s114.615 256 256 256c141.385 0 256-114.615 256-256v0c0-141.385-114.615-256-256-256v0zM885.76 529.92c-19.794 0-35.84 16.046-35.84 35.84s16.046 35.84 35.84 35.84c19.794 0 35.84-16.046 35.84-35.84v0c0-19.794-16.046-35.84-35.84-35.84v0z" />
<glyph unicode="&#xe91d;" glyph-name="alert" d="M968.533 156.501l-402.517 675.072c-15.548 25.973-43.535 43.091-75.52 43.091s-59.972-17.118-75.299-42.692l-0.221-0.399-402.517-675.072c-7.947-13.158-12.65-29.050-12.65-46.041 0-16.088 4.216-31.191 11.603-44.265l-0.234 0.449c15.34-27.134 43.948-45.181 76.781-45.312h805.054c32.852 0.131 61.46 18.178 76.571 44.873l0.229 0.439c7.154 12.625 11.37 27.728 11.37 43.815 0 16.99-4.702 32.882-12.876 46.446l0.227-0.405zM914.176 98.389c-4.218-7.481-12.109-12.452-21.162-12.459h-805.036c-9.054 0.007-16.945 4.978-21.1 12.338l-0.063 0.121c-2.068 3.553-3.289 7.821-3.289 12.373s1.221 8.82 3.353 12.493l-0.064-0.119 402.517 675.072c4.333 7.111 12.023 11.801 20.813 11.861h0.009c8.779-0.038 16.453-4.739 20.675-11.752l0.061-0.109 402.603-675.072c2.388-3.755 3.806-8.33 3.806-13.236 0-4.309-1.094-8.362-3.018-11.897l0.065 0.131zM490.837 608.853c-1.545 0.221-3.33 0.348-5.144 0.348-20.636 0-37.452-16.35-38.203-36.802l-0.002-0.068c0-71.339 8.533-173.909 8.533-245.163 1.187-15.136 13.762-26.968 29.1-26.968 2.084 0 4.117 0.218 6.078 0.634l-0.191-0.034c0.999-0.114 2.156-0.178 3.328-0.178 15.578 0 28.486 11.437 30.783 26.372l0.022 0.174c0 71.253 8.533 173.824 8.533 245.163-0.828 20.505-17.652 36.815-38.285 36.815-1.665 0-3.305-0.106-4.913-0.312l0.191 0.020zM491.349 259.413c-25.496 0-46.165-20.669-46.165-46.165s20.669-46.165 46.165-46.165v0c0.025 0 0.055 0 0.085 0 25.496 0 46.165 20.669 46.165 46.165 0 25.466-20.62 46.117-46.075 46.165h-0.005z" />
<glyph unicode="&#xe91e;" glyph-name="edit" horiz-adv-x="1027" d="M960.091 896.262c-40.988 41.022-97.631 66.397-160.201 66.397s-119.212-25.375-160.199-66.395l-587.588-587.503c-4.577-4.425-7.686-10.343-8.54-16.967l-0.015-0.144-43.547-322.198c-0.152-1.124-0.239-2.423-0.239-3.742 0-8.213 3.364-15.641 8.79-20.98l0.004-0.004c5.348-5.267 12.686-8.528 20.784-8.555h0.005c0.59-0.062 1.275-0.098 1.968-0.098s1.378 0.036 2.052 0.105l-0.085-0.007 194.294 26.18c14.571 2.010 25.672 14.381 25.672 29.345 0 16.352-13.256 29.608-29.608 29.608-1.388 0-2.753-0.095-4.090-0.28l0.155 0.018-155.794-21.046 30.372 224.922 236.729-236.729c5.357-5.252 12.689-8.509 20.781-8.555h0.009c0.044 0 0.097 0 0.15 0 8.062 0 15.36 3.27 20.64 8.556v0l587.502 587.416c41.14 40.982 66.597 97.683 66.597 160.329s-25.457 119.347-66.59 160.322l-0.007 0.007zM651.069 824.054l98.644-98.73-536.169-536.169-98.644 98.644zM351.628 50.899l-96.505 96.42 536.169 536.255 96.505-96.505zM928.864 629.332l-236.044 236.044c29.125 25.043 67.3 40.29 109.036 40.29 92.611 0 167.687-75.076 167.687-167.687 0-41.715-15.232-79.872-40.438-109.213l0.187 0.223z" />
<glyph unicode="&#xe91f;" glyph-name="user-notification" d="M531.797 861.013c-1.739 0.026-3.791 0.041-5.847 0.041-229.348 0-415.674-184.2-419.109-412.731l-0.004-0.323c0-0.129 0-0.282 0-0.435 0-57.934 12.261-113.005 34.329-162.759l-1.015 2.563-68.949-183.125c-9.728-25.873-1.502-41.847 18.466-41.847 7.585 0.222 14.733 1.845 21.276 4.617l-0.386-0.145 155.375 59.119c72.264-56.784 164.548-91.069 264.839-91.069 0.349 0 0.697 0 1.045 0.001h-0.054c4.188-0.152 9.109-0.239 14.051-0.239 228.233 0 413.252 185.019 413.252 413.252s-185.019 413.252-413.252 413.252c-4.941 0-9.862-0.087-14.761-0.259l0.71 0.020zM341.333 395.025c-28.6 0.818-51.473 24.198-51.473 52.92 0 29.238 23.702 52.941 52.941 52.941 29.219 0 52.91-23.671 52.941-52.883v-0.003c-0.421-29.349-24.311-52.979-53.721-52.979-0.242 0-0.483 0.002-0.724 0.005h0.037zM542.31 395.025c-28.6 0.818-51.473 24.198-51.473 52.92 0 29.238 23.702 52.941 52.941 52.941 29.219 0 52.91-23.671 52.941-52.883v-0.003c-0.459-29.319-24.334-52.911-53.72-52.911-0.242 0-0.484 0.002-0.726 0.005h0.037zM743.253 395.093c-28.585 0.837-51.439 24.209-51.439 52.919 0 29.238 23.702 52.941 52.941 52.941s52.941-23.702 52.941-52.941c0-0.004 0-0.009 0-0.013v0.001c-0.439-29.316-24.307-52.912-53.686-52.912-0.266 0-0.532 0.002-0.797 0.006h0.040zM531.627 926.208c4.17 0.13 9.075 0.205 13.997 0.205 264.22 0 478.413-214.193 478.413-478.413s-214.193-478.413-478.413-478.413c-4.922 0-9.826 0.074-14.712 0.222l0.715-0.017c-102.562 0.042-197.946 30.74-277.496 83.425l1.87-1.164-120.969-46.046c-13.421-5.465-28.981-8.729-45.277-8.942l-0.086-0.001c-0.648-0.017-1.411-0.027-2.176-0.027-29.11 0-54.938 14.048-71.077 35.733l-0.168 0.236c-10.371 15.059-16.564 33.694-16.564 53.776 0 14.374 3.173 28.007 8.857 40.236l-0.246-0.589 60.245 159.983c-18.158 47.792-28.672 103.053-28.672 160.77 0 0.215 0 0.43 0 0.645v-0.033c4.205 265.022 220.032 478.248 485.66 478.248 2.193 0 4.382-0.015 6.567-0.043l-0.332 0.003z" />
<glyph unicode="&#xe920;" glyph-name="trainning" d="M670.501 960h-317.001v-97.499h317.001v97.499zM459.191 326.071h105.618v292.571h-105.618v-292.571zM881.81 647.899l79.214 68.315c-24.254 23.251-50.069 45.588-76.99 66.574l-2.224 1.669-74.021-68.242c-81.803 60.397-184.476 96.885-295.643 97.499l-0.147 0.001c-227.525-18.788-405.065-208.080-405.065-438.839 0-243.142 197.105-440.247 440.247-440.247 243.135 0 440.236 197.095 440.247 440.227v0.001c0.009 0.979 0.014 2.136 0.014 3.294 0 104.259-40.165 199.136-105.866 270.004l0.234-0.256zM512 33.499c-176.99 14.609-315.099 161.856-315.099 341.361 0 189.133 153.322 342.455 342.455 342.455s342.455-153.322 342.455-342.455c0-0.001 0-0.002 0-0.003v0c-6.936-190.174-162.776-341.71-354.010-341.71-5.557 0-11.085 0.128-16.58 0.381l0.779-0.029z" />
<glyph unicode="&#xe921;" glyph-name="event-notification" d="M972.8 64.461h-921.6v21.504c-0.014 0.849-0.022 1.851-0.022 2.855 0 84.48 56.834 155.685 134.353 177.467l1.298 0.312v250.368c-0.391 5.978-0.614 12.962-0.614 19.997 0 179.898 145.836 325.734 325.734 325.734s325.734-145.836 325.734-325.734c0-7.035-0.223-14.018-0.662-20.943l0.048 0.946v-250.368c78.869-22.058 135.753-93.289 135.753-177.806 0-0.994-0.008-1.986-0.024-2.977l0.002 0.149zM93.082 107.264h837.837c-7.984 61.638-55.302 110.207-115.627 120.008l-0.802 0.107-17.613 2.304v287.232c0.359 5.359 0.563 11.618 0.563 17.924 0 157.672-127.819 285.491-285.491 285.491s-285.491-127.819-285.491-285.491c0-6.306 0.204-12.564 0.607-18.769l-0.044 0.845v-287.283l-17.613-2.304c-61.069-9.944-108.332-58.476-116.252-119.364l-0.074-0.7zM455.987 832v25.6l0.022-0.249c-0.217 2.011-0.329 4.054-0.329 6.124 0 31.105 25.215 56.32 56.32 56.32s56.32-25.215 56.32-56.32c0-2.069-0.112-4.112-0.307-5.874v-25.6h40.141v25.6l-0.016-0.294c0.146 2.172 0.221 4.364 0.221 6.573 0 53.217-43.141 96.358-96.358 96.358s-96.358-43.141-96.358-96.358c0-2.209 0.074-4.401 0.205-6.279v-25.6h40.141zM511.693-64l0.213 0.004c83.519 2.085 152.117 64.267 164.292 145.865l-39.475 7.731-0.060-0.603c-7.544-62.266-60.578-110.509-124.879-110.509-63.394 0-115.835 46.891-124.611 108.552l-39.322-8.55 0.145-1.015c13.596-78.854 81.272-139.2 163.695-141.474zM207.002 270.029v-42.803h73.933v42.803h-73.933zM396.442 270.029v-42.803h420.352v42.803h-420.352z" />
<glyph unicode="&#xe922;" glyph-name="search" d="M983.040 27.29l-239.718 253.491c59.392 71.43 95.437 164.109 95.437 265.207 0 0.201 0 0.402 0 0.604v-0.031c-3.744 221.779-184.409 400.128-406.73 400.128-224.661 0-406.784-182.123-406.784-406.784s182.123-406.784 406.784-406.784c0.017 0 0.033 0 0.050 0h-0.002c0.222 0 0.486-0.001 0.749-0.001 87.18 0 167.811 28.043 233.363 75.6l-1.152-0.796 241.562-255.386c9.595-10.185 23.172-16.527 38.23-16.527 14.328 0 27.315 5.742 36.785 15.050l-0.008-0.007c10.033 9.902 16.247 23.652 16.247 38.853 0 14.479-5.638 27.642-14.839 37.412l0.026-0.028zM432.077 852.122c1.477 0.026 3.22 0.040 4.966 0.040 168.785 0 305.613-136.828 305.613-305.613s-136.828-305.613-305.613-305.613c-168.785 0-305.613 136.828-305.613 305.613 0 0.004 0 0.008 0 0.012v-0.001c-0.005 0.642-0.008 1.402-0.008 2.162 0 166.654 134.362 301.926 300.668 303.399l0.14 0.001z" />
<glyph unicode="&#xe923;" glyph-name="compass" d="M512 844.064c-218.726-0.018-396.032-177.335-396.032-396.064 0-218.74 177.324-396.064 396.064-396.064s396.064 177.324 396.064 396.064v0c-0.255 218.649-177.445 395.827-396.073 396.064h-0.023zM540.544 110.176v50.56c0 15.764-12.78 28.544-28.544 28.544s-28.544-12.78-28.544-28.544v0-50.528c-164.605 14.559-294.689 144.643-309.156 307.954l-0.092 1.294h50.528c15.348 0.53 27.588 13.1 27.588 28.528s-12.241 27.998-27.54 28.527l-0.048 0.001h-50.528c14.559 164.605 144.643 294.689 307.954 309.156l1.294 0.092v-50.528c0-15.764 12.78-28.544 28.544-28.544s28.544 12.78 28.544 28.544v0 50.56c164.605-14.559 294.689-144.643 309.156-307.954l0.092-1.294h-50.496c-0.285 0.010-0.62 0.016-0.956 0.016-15.764 0-28.544-12.78-28.544-28.544s12.78-28.544 28.544-28.544c0.336 0 0.671 0.006 1.004 0.017l-0.048-0.001h50.528c-14.546-164.628-144.652-294.734-307.987-309.188l-1.293-0.092zM512 960c-282.77 0-512-229.23-512-512s229.23-512 512-512c282.77 0 512 229.23 512 512v0c-0.327 282.638-229.362 511.672-511.968 512h-0.032zM512-6.944c-251.259 0-454.944 203.685-454.944 454.944s203.685 454.944 454.944 454.944c251.259 0 454.944-203.685 454.944-454.944v0c-0.291-251.142-203.803-454.653-454.917-454.944h-0.027zM637.664 608.352l-96.864-57.952c-8.619 2.52-18.52 3.97-28.759 3.97-58.622 0-106.144-47.522-106.144-106.144 0-8.941 1.105-17.623 3.187-25.918l-0.156 0.732-61.152-95.36c-2.814-4.346-4.487-9.659-4.487-15.363 0-15.764 12.78-28.544 28.544-28.544 5.401 0 10.452 1.5 14.758 4.107l-0.127-0.072 96.736 57.792c8.609-2.514 18.498-3.961 28.725-3.961 58.622 0 106.144 47.522 106.144 106.144 0 8.937-1.105 17.616-3.185 25.909l0.155-0.732 61.184 95.36c2.868 4.376 4.574 9.738 4.574 15.499 0 15.764-12.78 28.544-28.544 28.544-5.384 0-10.421-1.491-14.718-4.082l0.128 0.072zM512 398.848c-27.146 0-49.152 22.006-49.152 49.152s22.006 49.152 49.152 49.152c27.146 0 49.152-22.006 49.152-49.152v0c-0.018-27.139-22.013-49.134-49.15-49.152h-0.002z" />
<glyph unicode="&#xe924;" glyph-name="team" d="M512-64c-282.102 0-512 229.898-512 512s229.898 512 512 512c282.102 0 512-229.898 512-512s-229.898-512-512-512zM512 939.922c-271.059 0-491.922-220.863-491.922-491.922s220.863-491.922 491.922-491.922 491.922 220.863 491.922 491.922-220.863 491.922-491.922 491.922zM853.333 84.58h-20.078c0 45.176-25.098 85.333-65.255 105.412l-135.529 68.267c-16.063 8.031-26.102 24.094-26.102 42.165v51.2l2.008 3.012c3.012 4.016 6.024 8.031 10.039 13.051 17.067 24.094 31.122 51.2 40.157 80.314l1.004 4.016 4.016 2.008c16.063 8.031 27.106 24.094 27.106 42.165v57.224c0 11.043-4.016 22.086-12.047 31.122l-2.008 3.012v79.31c3.012 32.125-7.027 62.243-27.106 86.337-27.106 30.118-71.278 46.18-132.518 46.18s-105.412-16.063-132.518-47.184c-20.078-24.094-30.118-54.212-27.106-85.333v-80.314l-2.008-3.012c-7.027-8.031-12.047-19.075-12.047-31.122v-57.224c0-14.055 6.024-27.106 17.067-36.141l3.012-2.008 1.004-3.012c9.035-36.141 26.102-69.271 48.188-99.388l2.008-3.012v-50.196c0-17.067-9.035-33.129-25.098-42.165l-126.494-69.271c-38.149-21.082-61.239-60.235-61.239-103.404h-20.078c0 50.196 27.106 97.38 72.282 121.475l126.494 69.271c9.035 5.020 14.055 14.055 14.055 24.094v44.173c-22.086 30.118-38.149 64.251-48.188 100.392-14.055 13.051-22.086 30.118-22.086 50.196v57.224c0 15.059 5.020 29.114 14.055 41.161v72.282c-3.012 36.141 8.031 71.278 32.125 99.388 31.122 36.141 81.318 54.212 148.58 54.212s117.459-18.071 148.58-53.208c24.094-28.11 35.137-63.247 32.125-100.392v-71.278c9.035-12.047 14.055-26.102 14.055-41.161v-57.224c0-24.094-13.051-47.184-35.137-58.227-10.039-29.114-24.094-56.22-42.165-81.318-3.012-4.016-6.024-8.031-8.031-11.043v-44.173c0-10.039 6.024-20.078 15.059-25.098l135.529-68.267c45.176-24.094 74.29-71.278 74.29-124.486zM345.349 245.208c-5.020 5.020-11.043 9.035-17.067 12.047l-80.314 40.157c-11.043 6.024-18.071 17.067-18.071 29.114v32.125l2.008 3.012c2.008 2.008 4.016 5.020 6.024 7.027 10.039 14.055 18.071 30.118 24.094 47.184l1.004 4.016 4.016 2.008c8.031 4.016 14.055 12.047 14.055 22.086v34.133c0 6.024-2.008 11.043-6.024 16.063l-2.008 3.012v49.192c1.004 18.071-4.016 36.141-15.059 49.192-15.059 18.071-41.161 26.102-76.298 26.102s-61.239-9.035-76.298-27.106c-11.043-13.051-17.067-31.122-15.059-48.188v-50.196l-2.008-3.012c-4.016-4.016-6.024-10.039-6.024-16.063v-34.133c0-7.027 3.012-14.055 9.035-19.075l3.012-2.008 1.004-3.012c6.024-21.082 15.059-41.161 28.11-58.227l2.008-3.012v-30.118c0-12.047-6.024-23.090-17.067-29.114l-55.216-30.118-10.039 18.071 55.216 30.118c4.016 2.008 6.024 6.024 6.024 11.043v25.098c-14.055 18.071-24.094 38.149-30.118 60.235-9.035 8.031-14.055 20.078-14.055 32.125v34.133c0 9.035 3.012 18.071 8.031 26.102v42.165c-2.008 22.086 5.020 44.173 20.078 62.243 19.075 22.086 50.196 34.133 91.357 34.133s72.282-11.043 91.357-34.133c15.059-18.071 22.086-40.157 20.078-63.247v-41.161c5.020-7.027 8.031-17.067 8.031-26.102v-34.133c0-16.063-8.031-30.118-21.082-38.149-6.024-17.067-14.055-33.129-25.098-48.188-1.004-2.008-3.012-4.016-4.016-6.024v-25.098c0-5.020 3.012-9.035 7.027-11.043l81.318-41.161c8.031-4.016 15.059-9.035 22.086-16.063l-14.055-14.055zM688.69 245.208l-14.055 14.055c6.024 6.024 14.055 12.047 22.086 16.063l81.318 41.161c4.016 2.008 7.027 6.024 7.027 11.043v25.098c-1.004 2.008-3.012 4.016-4.016 6.024-10.039 15.059-19.075 31.122-25.098 48.188-13.051 8.031-22.086 22.086-21.082 38.149v34.133c0 9.035 3.012 18.071 8.031 26.102v42.165c-2.008 22.086 5.020 44.173 20.078 62.243 19.075 22.086 50.196 34.133 91.357 34.133s72.282-11.043 91.357-34.133c15.059-18.071 22.086-40.157 20.078-63.247v-41.161c5.020-7.027 8.031-17.067 8.031-26.102v-34.133c0-12.047-5.020-24.094-14.055-32.125-6.024-21.082-15.059-41.161-28.11-59.231v-26.102c0-5.020 2.008-9.035 6.024-11.043l55.216-30.118-10.039-18.071-55.216 30.118c-10.039 6.024-17.067 17.067-17.067 29.114v31.122l2.008 3.012c13.051 18.071 22.086 37.145 28.11 58.227l1.004 3.012 3.012 2.008c6.024 5.020 9.035 11.043 9.035 19.075v34.133c0 6.024-2.008 11.043-6.024 16.063l-2.008 3.012v49.192c1.004 18.071-4.016 36.141-15.059 49.192-15.059 18.071-41.161 26.102-76.298 26.102s-61.239-9.035-76.298-27.106c-11.043-13.051-17.067-31.122-15.059-48.188v-50.196l-2.008-3.012c-4.016-4.016-6.024-10.039-6.024-16.063v-34.133c0-9.035 5.020-18.071 14.055-22.086l4.016-2.008 1.004-4.016c6.024-17.067 14.055-32.125 24.094-47.184 2.008-3.012 4.016-5.020 6.024-8.031l2.008-3.012v-29.114c0-12.047-7.027-23.090-18.071-29.114l-82.322-41.161c-7.027-3.012-12.047-7.027-17.067-12.047z" />
<glyph unicode="&#xe925;" glyph-name="button-on" d="M512-64c-279.273 0-512 232.727-512 512s232.727 512 512 512c279.273 0 512-232.727 512-512s-232.727-512-512-512zM512 866.909c-232.727 0-418.909-186.182-418.909-418.909s186.182-418.909 418.909-418.909 418.909 186.182 418.909 418.909-186.182 418.909-418.909 418.909zM791.273 448c0-154.238-125.035-279.273-279.273-279.273s-279.273 125.035-279.273 279.273c0 154.238 125.035 279.273 279.273 279.273s279.273-125.035 279.273-279.273z" />
<glyph unicode="&#xe926;" glyph-name="check" d="M871.283 88.717c92.37 92.368 149.501 219.974 149.501 360.923 0 281.896-228.522 510.418-510.418 510.418s-510.418-228.522-510.418-510.418c0-140.95 57.132-268.556 149.502-360.924v0c92.367-92.365 219.97-149.494 360.916-149.494s268.549 57.129 360.916 149.494v0zM327.382 527.676l114.844-114.742 251.432 251.228 88.915-88.915-340.347-340.142-203.759 203.657z" />
<glyph unicode="&#xe927;" glyph-name="love" d="M941.273 814.406c-51.303 51.222-122.133 82.898-200.363 82.898-78.337 0-149.255-31.763-200.579-83.113l-27.929-27.929-28.424 28.424c-51.5 52.911-123.408 85.735-202.982 85.735-156.38 0-283.152-126.771-283.152-283.152 0-79.52 32.78-151.383 85.564-202.815l0.061-0.059 407.583-407.645c5.278-5.363 12.615-8.686 20.728-8.686 8.005 0 15.255 3.235 20.513 8.469l-0.001-0.001 408.545 406.869c51.383 51.362 83.165 122.33 83.165 200.72 0 78.174-31.607 148.966-82.739 200.294l0.009-0.009zM899.6 454.827l-387.879-386.265-387.103 386.917c-41.395 40.779-67.040 97.445-67.040 160.101 0 124.093 100.597 224.69 224.69 224.69 62.687 0 119.378-25.671 160.134-67.074l49.088-49.057c5.296-5.325 12.627-8.621 20.728-8.621s15.433 3.296 20.727 8.619l48.625 48.594c40.549 39.881 96.212 64.503 157.626 64.503 124.179 0 224.846-100.667 224.846-224.846 0-61.383-24.597-117.021-64.473-157.595l0.032 0.032z" />
<glyph unicode="&#xe928;" glyph-name="star-o" d="M1022.607 573.010c-3.144 10.598-11.913 18.547-22.764 20.455l-0.174 0.025-319.488 47.555-143.606 302.572c-4.59 9.673-14.229 16.267-25.421 16.384h-0.015c-11.271-0.154-20.931-6.892-25.323-16.535l-0.072-0.177-141.885-303.555-319.488-49.766c-10.964-1.902-19.708-9.743-22.883-20.029l-0.055-0.205c-0.875-2.707-1.379-5.82-1.379-9.052 0-8.318 3.342-15.856 8.756-21.343l231.83-235.312-53.617-333.251c-0.287-1.558-0.451-3.351-0.451-5.183 0-9.695 4.595-18.316 11.726-23.806l0.071-0.052c4.538-3.566 10.331-5.723 16.627-5.734h0.003c0.034 0 0.075 0 0.115 0 4.83 0 9.354 1.308 13.238 3.59l-0.123-0.067 285.204 158.269 286.024-156.508c3.781-2.064 8.277-3.29 13.058-3.318h0.009c15.761 0.499 28.349 13.395 28.349 29.232 0 0.178-0.002 0.355-0.005 0.532v-0.027c0.003 0.145 0.005 0.317 0.005 0.489 0 2.244-0.301 4.418-0.864 6.483l0.040-0.172-55.296 331.284 230.359 236.626c5.52 5.454 8.94 13.023 8.94 21.392 0 3.289-0.528 6.455-1.505 9.418l0.061-0.212zM734.659 337.285c-5.345-5.466-8.642-12.954-8.642-21.211 0-1.84 0.164-3.642 0.478-5.392l-0.027 0.184 48.128-289.014-248.422 135.823c-3.826 2.129-8.392 3.382-13.251 3.382s-9.425-1.253-13.392-3.454l0.142 0.072-247.562-137.38 46.449 289.464c0.257 1.489 0.403 3.203 0.403 4.952 0 8.265-3.277 15.765-8.603 21.271l0.008-0.008-200.95 204.268 277.217 43.131c9.538 1.63 17.341 7.822 21.185 16.207l0.073 0.177 123.167 263.455 124.805-262.799c4.051-8.534 11.892-14.698 21.288-16.358l277.597-41.396z" />
<glyph unicode="&#xe929;" glyph-name="star" d="M536.21 907.776l130.267-300.178 333.458-27.904c13.332-0.98 23.777-12.038 23.777-25.535 0-7.687-3.388-14.583-8.753-19.276l-0.030-0.026-252.928-213.358 75.813-317.44c0.366-1.638 0.575-3.519 0.575-5.449 0-14.421-11.691-26.112-26.112-26.112-5.042 0-9.751 1.429-13.742 3.905l0.111-0.064-286.647 168.302-286.574-168.229c-3.869-2.387-8.558-3.801-13.578-3.801-14.441 0-26.149 11.707-26.149 26.149 0 1.903 0.203 3.759 0.589 5.546l-0.031-0.172 75.813 317.44-253.001 213.431c-5.395 4.718-8.783 11.614-8.783 19.302 0 13.497 10.445 24.555 23.693 25.53l0.084 0.005 333.458 27.867 130.267 300.142c4.271 9.284 13.493 15.614 24.194 15.614 10.729 0 19.971-6.363 24.159-15.522l0.068-0.166z" />
<glyph unicode="&#xe92a;" glyph-name="close" horiz-adv-x="1027" d="M1027.21 835.127l-126.090 126.201-388.566-388.566-372.182 372.182-125.205-125.205 372.182-372.182-386.795-386.795 126.201-126.090 386.685 386.685 374.064-374.064 125.205 125.315-373.954 373.954z" />
<glyph unicode="&#xe92b;" glyph-name="more" d="M605.753 961.479h-138.581v-428.032h-409.6v-138.012h409.6v-425.984h138.923v425.87h411.989v137.899h-411.989v428.26z" />
<glyph unicode="&#xe92c;" glyph-name="check-o" d="M316.032 95.616l-294.4 323.584c-16.31 17.427-26.326 40.92-26.326 66.752s10.016 49.325 26.376 66.807l-0.051-0.055c15.805 17.029 38.31 27.651 63.296 27.651s47.491-10.622 63.246-27.596l0.050-0.055 230.4-256.896 486.4 512.896c15.827 17.035 38.353 27.659 63.36 27.659s47.533-10.624 63.31-27.605l0.050-0.054c16.227-17.462 26.185-40.944 26.185-66.752s-9.958-49.29-26.241-66.813l0.056 0.061-550.4-579.584c-15.759-16.623-37.999-26.967-62.656-26.967s-46.897 10.344-62.62 26.928l-0.036 0.039z" />
<glyph unicode="&#xe92d;" glyph-name="button-off" d="M512-64c-279.273 0-512 232.727-512 512s232.727 512 512 512c279.273 0 512-232.727 512-512s-232.727-512-512-512zM512 866.909c-232.727 0-418.909-186.182-418.909-418.909s186.182-418.909 418.909-418.909 418.909 186.182 418.909 418.909-186.182 418.909-418.909 418.909z" />
<glyph unicode="&#xe92e;" glyph-name="list" d="M972.8 77.466h-684.646c-0.481-0.016-1.047-0.026-1.615-0.026-28.136 0-50.944 22.808-50.944 50.944s22.808 50.944 50.944 50.944c0.568 0 1.134-0.009 1.697-0.028l-0.082 0.002h684.646c0.481 0.016 1.047 0.026 1.615 0.026 28.136 0 50.944-22.808 50.944-50.944s-22.808-50.944-50.944-50.944c-0.568 0-1.134 0.009-1.697 0.028l0.082-0.002zM972.8 397.107h-684.646c-0.481-0.016-1.047-0.026-1.615-0.026-28.136 0-50.944 22.808-50.944 50.944s22.808 50.944 50.944 50.944c0.568 0 1.134-0.009 1.697-0.028l-0.082 0.002h684.646c0.481 0.016 1.047 0.026 1.615 0.026 28.136 0 50.944-22.808 50.944-50.944s-22.808-50.944-50.944-50.944c-0.568 0-1.134 0.009-1.697 0.028l0.082-0.002zM972.8 716.749h-684.646c-0.481-0.016-1.047-0.026-1.615-0.026-28.136 0-50.944 22.808-50.944 50.944s22.808 50.944 50.944 50.944c0.568 0 1.134-0.009 1.697-0.028l-0.082 0.002h684.646c0.481 0.016 1.047 0.026 1.615 0.026 28.136 0 50.944-22.808 50.944-50.944s-22.808-50.944-50.944-50.944c-0.568 0-1.134 0.009-1.697 0.028l0.082-0.002zM68.608 832c37.69-0.117 68.198-30.697 68.198-68.403 0-37.778-30.625-68.403-68.403-68.403s-68.403 30.625-68.403 68.403c0 0.036 0 0.072 0 0.108v-0.006c0.116 37.746 30.743 68.301 68.505 68.301 0.036 0 0.072 0 0.108 0h-0.006zM68.608 516.301c37.69-0.117 68.198-30.697 68.198-68.403 0-37.778-30.625-68.403-68.403-68.403s-68.403 30.625-68.403 68.403c0 0.036 0 0.072 0 0.108v-0.006c0.058 37.791 30.707 68.403 68.506 68.403 0.036 0 0.072 0 0.108 0h-0.006zM68.608 200.602c37.69-0.117 68.198-30.697 68.198-68.403 0-37.778-30.625-68.403-68.403-68.403s-68.403 30.625-68.403 68.403c0 0.036 0 0.072 0 0.108v-0.006c0.058 37.791 30.707 68.403 68.506 68.403 0.036 0 0.072 0 0.108 0h-0.006z" />
<glyph unicode="&#xe92f;" glyph-name="menu" horiz-adv-x="1170" d="M0 82.286h1170.286v-146.286h-1170.286v146.286zM0 960h1170.286v-146.286h-1170.286v146.286zM0 521.143h1170.286v-146.286h-1170.286v146.286z" />
<glyph unicode="&#xe930;" glyph-name="facebook" d="M512 960c-282.77 0-512-229.23-512-512s229.23-512 512-512c282.77 0 512 229.23 512 512v0c0 282.77-229.23 512-512 512v0zM512 16.009c-238.582 0-431.991 193.409-431.991 431.991s193.409 431.991 431.991 431.991c238.582 0 431.991-193.409 431.991-431.991v0c0-238.582-193.409-431.991-431.991-431.991v0zM633.515 526.507h-89.088v64.853c1.349 13.941 13.006 24.751 27.187 24.751 1.089 0 2.162-0.064 3.218-0.188l-0.128 0.012h57.515v87.723l-65.946 0.341c-2.914 0.299-6.297 0.469-9.719 0.469-55.781 0-101.001-45.219-101.001-101.001 0-2.399 0.084-4.778 0.248-7.135l-0.018 0.318v-70.144h-65.297v-90.351h65.297v-244.156h88.747v244.019h75.332z" />
<glyph unicode="&#xe931;" glyph-name="instagram" d="M634.88 721.067h-245.76c-81.92 0-150.187-68.267-150.187-150.187v-245.76c0-81.92 68.267-150.187 150.187-150.187h245.76c81.92 0 150.187 68.267 150.187 150.187v245.76c0 81.92-68.267 150.187-150.187 150.187zM737.28 325.12c0-58.027-44.373-102.4-102.4-102.4h-245.76c-58.027 0-102.4 44.373-102.4 102.4v245.76c0 58.027 44.373 102.4 102.4 102.4h245.76c58.027 0 102.4-44.373 102.4-102.4v-245.76zM512 587.947c-78.507 0-139.947-61.44-139.947-139.947s61.44-139.947 139.947-139.947c78.507 0 139.947 61.44 139.947 139.947 0 0 0 0 0 0 0 78.507-61.44 139.947-139.947 139.947v0zM512 355.84c-51.2 0-92.16 40.96-92.16 92.16s40.96 92.16 92.16 92.16c51.2 0 92.16-40.96 92.16-92.16 0 0 0 0 0 0 0-51.2-40.96-92.16-92.16-92.16v0zM658.773 628.907c-10.24 0-17.067-3.413-23.893-10.24-13.653-13.653-13.653-34.133 0-51.2 0 0 0 0 0 0 13.653-13.653 37.547-13.653 51.2 0 0 0 0 0 0 0 13.653 13.653 13.653 37.547 0 51.2-10.24 6.827-17.067 10.24-27.307 10.24v0zM512 960c-283.307 0-512-228.693-512-512s228.693-512 512-512 512 228.693 512 512-228.693 512-512 512v0zM512 14.507c-238.933 0-433.493 194.56-433.493 433.493s194.56 433.493 433.493 433.493c238.933 0 433.493-194.56 433.493-433.493s-194.56-433.493-433.493-433.493c0 0 0 0 0 0v0z" />
<glyph unicode="&#xe932;" glyph-name="linkedin" d="M512 960c-282.77 0-512-229.23-512-512s229.23-512 512-512c282.77 0 512 229.23 512 512v0c0 282.77-229.23 512-512 512v0zM512 15.906c-238.62 0-432.060 193.44-432.060 432.060s193.44 432.060 432.060 432.060c238.608 0 432.040-193.42 432.060-432.024v-0.002c0-0.010 0-0.022 0-0.034 0-238.601-193.424-432.026-432.026-432.026-0.012 0-0.024 0-0.037 0h0.002zM256 192.137h95.983v384.102h-95.983v-384.034zM640.034 576.171c-51.623-2.418-97.133-26.69-127.798-63.707l-0.236-0.293v64.068h-95.983v-384.034h95.983v224.017c7.76 37.662 40.645 65.577 80.050 65.577 5.65 0 11.167-0.574 16.494-1.667l-0.527 0.090c40.721-2.662 62.635-56.491 64.034-64v-224.017l95.573-0.444v265.865c-0.539 65.757-53.971 118.856-119.804 118.856-2.679 0-5.338-0.088-7.974-0.261l0.358 0.019zM303.991 704.171c-26.505 0-47.991-21.487-47.991-47.991s21.487-47.991 47.991-47.991c26.505 0 47.991 21.487 47.991 47.991v0c0 0.020 0 0.044 0 0.069 0 26.445-21.389 47.894-47.812 47.991h-0.009z" />
<glyph unicode="&#xe933;" glyph-name="twitter" d="M512 960c-282.77 0-512-229.23-512-512s229.23-512 512-512c282.77 0 512 229.23 512 512v0c0 282.77-229.23 512-512 512v0zM512 15.906c-238.586 0.019-431.991 193.436-431.991 432.026 0 238.601 193.424 432.026 432.026 432.026 238.577 0 431.986-193.385 432.026-431.953v-0.004c0-0.010 0-0.022 0-0.034 0-238.601-193.424-432.026-432.026-432.026-0.012 0-0.024 0-0.037 0h0.002zM768 618.155c-17.013-8.873-36.821-15.193-57.775-17.831l-0.866-0.089c20.629 15.177 36.058 36.349 43.801 60.93l0.231 0.851c-18.759-12.509-41.026-21.369-65.008-25.009l-0.904-0.113c-18.65 21.454-45.919 34.995-76.356 35.191h-0.034c-58.872-2.338-105.712-50.63-105.712-109.862 0-1.373 0.025-2.74 0.075-4.101l-0.006 0.197c0.020-8.982 1.013-17.722 2.881-26.133l-0.15 0.806c-91.487 4.302-171.641 49.345-223.243 117.265l-0.535 0.734c-8.84-16.236-14.038-35.558-14.038-56.094 0-38.143 17.932-72.098 45.826-93.895l0.263-0.198c-2.128-0.249-4.594-0.392-7.093-0.392-14.753 0-28.348 4.96-39.208 13.304l0.152-0.112c-0.099-1.74-0.156-3.776-0.156-5.824 0-50.425 34.319-92.834 80.874-105.143l0.758-0.17c-8.216-3.26-17.735-5.151-27.696-5.151-5.763 0-11.378 0.633-16.78 1.833l0.512-0.096c10.941-43.356 48.685-75.273 94.199-77.27l0.214-0.007c-30.1-30.758-72.037-49.829-118.428-49.829-9.82 0-19.441 0.855-28.792 2.493l0.993-0.144c46.458-31.306 103.633-50.063 165.175-50.312h0.064c170.428 0 302.763 148.719 295.663 332.22 0 0.205 0 0.444 0 0.614s0 0.99 0 1.434 0 1.126 0 1.707c20.749 15.736 37.847 35.098 50.607 57.273l0.49 0.924z" />
<glyph unicode="&#xe934;" glyph-name="down-arrow" d="M457.626 166.093l-439.808 463.77c-13.004 13.96-20.985 32.749-20.985 53.402s7.982 39.441 21.029 53.449l-0.043-0.047c12.644 13.623 30.648 22.12 50.637 22.12s37.993-8.497 50.597-22.077l0.040-0.044 389.734-410.419 389.12 410.317c12.661 13.628 30.682 22.127 50.688 22.127s38.027-8.499 50.648-22.084l0.040-0.043c13.004-13.96 20.985-32.749 20.985-53.402s-7.982-39.441-21.029-53.449l0.043 0.047-440.32-463.77c-12.644-13.626-30.65-22.125-50.641-22.125-20.040 0-38.085 8.541-50.693 22.181l-0.042 0.046z" />
<glyph unicode="&#xe935;" glyph-name="up-arrow" d="M561.459 732.979l441.242-466.125c13.037-14.040 21.036-32.914 21.036-53.658s-8-39.618-21.082-53.707l0.046 0.050c-12.668-13.694-30.731-22.238-50.79-22.238s-38.122 8.545-50.749 22.192l-0.042 0.046-390.451 412.467-390.451-412.467c-12.668-13.694-30.731-22.238-50.79-22.238s-38.122 8.545-50.749 22.192l-0.042 0.046c-13.037 14.040-21.036 32.914-21.036 53.658s8 39.618 21.082 53.707l-0.046-0.050 441.242 466.125c12.668 13.694 30.731 22.238 50.79 22.238s38.122-8.545 50.749-22.192l0.042-0.046z" />
<glyph unicode="&#xe936;" glyph-name="right-arrow" d="M796.979 398.541l-466.125-441.242c-14.056-13.043-32.948-21.047-53.709-21.047s-39.653 8.003-53.759 21.093l0.050-0.046c-13.666 12.682-22.19 30.741-22.19 50.79s8.524 38.109 22.146 50.75l0.044 0.040 412.467 390.451-412.467 390.451c-13.666 12.682-22.19 30.741-22.19 50.79s8.524 38.109 22.146 50.75l0.044 0.040c14.056 13.043 32.948 21.047 53.709 21.047s39.653-8.003 53.759-21.093l-0.050 0.046 466.125-441.242c13.666-12.682 22.19-30.741 22.19-50.79s-8.524-38.109-22.146-50.75l-0.044-0.040z" />
<glyph unicode="&#xe937;" glyph-name="left-arrow" d="M227.021 500.634l466.125 441.242c14.040 13.037 32.914 21.036 53.658 21.036s39.618-8 53.707-21.082l-0.050 0.046c13.694-12.668 22.238-30.731 22.238-50.79s-8.545-38.122-22.192-50.749l-0.046-0.042-412.365-390.451 412.365-390.451c13.694-12.668 22.238-30.731 22.238-50.79s-8.545-38.122-22.192-50.749l-0.046-0.042c-14.030-13.059-32.908-21.074-53.658-21.074s-39.627 8.015-53.706 21.118l0.048-0.044-466.125 441.242c-13.694 12.668-22.238 30.731-22.238 50.79s8.545 38.122 22.192 50.749l0.046 0.042z" />
<glyph unicode="&#xe938;" glyph-name="parking" d="M594.739 578.15c-7.162 7.14-16.872 11.729-27.648 12.284l-0.103 0.004h-75.469v-117.043h79.36c10.359 0.369 19.519 5.209 25.655 12.639l0.047 0.059c7.721 10.783 12.346 24.241 12.346 38.778 0 2.464-0.133 4.896-0.392 7.291l0.026-0.297c0.273 2.161 0.428 4.661 0.428 7.198 0 14.93-5.388 28.602-14.326 39.176l0.074-0.090zM874.086 809.984c-92.658 92.682-220.678 150.009-362.086 150.009-282.77 0-512-229.23-512-512s229.23-512 512-512c282.77 0 512 229.23 512 512 0 0.002 0 0.004 0 0.007v0c0.001 0.389 0.002 0.848 0.002 1.308 0 140.947-57.309 268.509-149.896 360.656l-0.020 0.019zM747.93 461.824c-8.95-23.442-21.322-43.616-36.737-61.033l0.181 0.208c-15.642-17.583-34.572-31.862-55.876-41.943l-1.058-0.45c-21.036-9.963-45.702-15.78-71.727-15.78-0.667 0-1.334 0.004-2 0.011l0.101-0.001h-89.293v-168.243h-150.221v546.816h235.52c0.43 0.004 0.938 0.006 1.447 0.006 26.367 0 51.304-6.125 73.465-17.030l-0.978 0.435c22.669-11.075 41.944-25.539 58.044-42.979l0.12-0.131c15.687-17.223 28.539-37.371 37.602-59.473l0.491-1.352c8.633-20.36 13.703-44.029 13.824-68.869v-0.047c-0.081-25.365-4.96-49.567-13.777-71.778l0.465 1.327z" />
<glyph unicode="&#xe939;" glyph-name="trash" horiz-adv-x="939" d="M932.779 783.36c-3.756 3.701-8.917 5.987-14.61 5.987-0.264 0-0.526-0.005-0.787-0.015l0.038 0.001h-205.995l-46.677 110.933c-7.702 17.583-20.106 31.91-35.631 41.759l-0.379 0.225c-14.71 10.422-32.953 16.767-52.663 17.066l-0.073 0.001h-213.333c-19.783-0.299-38.026-6.645-53.030-17.264l0.294 0.198c-15.904-10.074-28.309-24.401-35.777-41.388l-0.234-0.596-46.677-110.933h-205.995c-0.26 0.012-0.565 0.019-0.872 0.019-11.311 0-20.48-9.169-20.48-20.48 0-0.307 0.007-0.612 0.020-0.915l-0.002 0.043v-42.667c-0.012-0.26-0.019-0.565-0.019-0.872 0-11.311 9.169-20.48 20.48-20.48 0.307 0 0.612 0.007 0.915 0.020l-0.043-0.002h64.085v-634.795c-0.036-1.204-0.056-2.62-0.056-4.040 0-34.258 11.819-65.755 31.602-90.637l-0.229 0.298c17.094-23.527 44.418-38.721 75.306-38.997h554.711c31.192 0.446 58.613 16.192 75.147 40.055l0.202 0.308c19.562 25.23 31.359 57.336 31.359 92.197 0 1.247-0.015 2.491-0.045 3.731l0.004-0.184v632.064h64c0.26-0.012 0.565-0.019 0.872-0.019 11.311 0 20.48 9.169 20.48 20.48 0 0.307-0.007 0.612-0.020 0.915l0.002-0.043v42.667c0.012 0.259 0.018 0.562 0.018 0.867 0 5.642-2.254 10.758-5.91 14.497l0.004-0.004zM352.512 867.328c2.742 3.692 6.719 6.332 11.31 7.316l0.125 0.022h211.371c4.697-0.986 8.653-3.633 11.312-7.285l0.037-0.053 32-77.995h-298.667zM768 71.936c0.003-0.266 0.005-0.581 0.005-0.896 0-9.363-1.723-18.323-4.87-26.581l0.171 0.512c-2.31-6.897-5.588-12.874-9.738-18.13l0.095 0.125c-1.704-2.524-4.091-4.471-6.896-5.596l-0.101-0.036h-554.667c-2.906 1.161-5.293 3.108-6.964 5.579l-0.034 0.053c-4.055 5.132-7.333 11.109-9.52 17.588l-0.122 0.417c-2.975 7.75-4.699 16.716-4.699 26.084 0 0.31 0.002 0.619 0.006 0.928v-0.047 632.064h597.333v-632.064zM277.163 149.248h42.667c0.239-0.010 0.52-0.016 0.803-0.016 5.651 0 10.767 2.289 14.472 5.989v0c3.851 3.781 6.238 9.042 6.238 14.861 0 0.206-0.003 0.41-0.009 0.615l0.001-0.030v384c0.007 0.207 0.012 0.45 0.012 0.694 0 11.405-9.246 20.651-20.651 20.651-0.244 0-0.487-0.004-0.73-0.013l0.035 0.001h-42.667c-0.207 0.007-0.45 0.012-0.694 0.012-11.405 0-20.651-9.246-20.651-20.651 0-0.244 0.004-0.487 0.013-0.73l-0.001 0.035v-384c-0.007-0.206-0.012-0.448-0.012-0.692 0-11.405 9.246-20.651 20.651-20.651 0.214 0 0.428 0.003 0.64 0.010l-0.031-0.001zM447.829 149.248h42.667c0.26-0.012 0.565-0.019 0.872-0.019 11.311 0 20.48 9.169 20.48 20.48 0 0.307-0.007 0.612-0.020 0.915l0.002-0.043v384c0.012 0.26 0.019 0.565 0.019 0.872 0 11.311-9.169 20.48-20.48 20.48-0.307 0-0.612-0.007-0.915-0.020l0.043 0.002h-42.667c-0.26 0.012-0.565 0.019-0.872 0.019-11.311 0-20.48-9.169-20.48-20.48 0-0.307 0.007-0.612 0.020-0.915l-0.002 0.043v-384c-0.010-0.237-0.015-0.515-0.015-0.794 0-11.311 9.169-20.48 20.48-20.48 0.366 0 0.729 0.010 1.090 0.029l-0.050-0.002zM618.496 149.248h42.667c0.26-0.012 0.565-0.019 0.872-0.019 11.311 0 20.48 9.169 20.48 20.48 0 0.307-0.007 0.612-0.020 0.915l0.002-0.043v384c0.012 0.26 0.019 0.565 0.019 0.872 0 11.311-9.169 20.48-20.48 20.48-0.307 0-0.612-0.007-0.915-0.020l0.043 0.002h-42.667c-0.207 0.007-0.45 0.012-0.694 0.012-11.405 0-20.651-9.246-20.651-20.651 0-0.244 0.004-0.487 0.013-0.73l-0.001 0.035v-384c-0.006-0.183-0.009-0.399-0.009-0.615 0-11.405 9.246-20.651 20.651-20.651 0.303 0 0.605 0.007 0.905 0.019l-0.043-0.001z" />
</font>
</defs>
</svg>
